Online Free Audiobook audiobook harrypotter cesme escort fethiye escort kemer escort kusadasi escort marmaris escort kutahya escort kutahya escort manisa escort mugla escort nevsehir escort nigde escort ordu escort corlu escort rize escort sakarya escort yalova escort

En busca de Dios [2/2]-[SATRip]-[2011]-[Castellano]

[center][imG]http://s5.postimage.org/lptwrkpfb/276104365_640.png[/img]

[img]http://s5.postimage.org/4w7yk60fr/Sinopsis.png[/img]
[B]Durante siglos, la ciencia y la fe se han polarizado sobre algunas de las cuestiones más fundamentales del Universo. Y en ocasiones, con consecuencias fatales.[/B]

Pero, mientras la humanidad busca una respuesta a la pregunta clave, si Dios existe, la religión y la ciencia se unen en una alianza insólita: ¿pueden proporcionarnos los nuevos descubrimientos científicos y la tecnología de la era digital pruebas tangibles de Dios? Ya sea en los rincones más remotos del cosmos o en el interior de la mente humana, científicos y creyentes de todo el mundo se sirven de la ciencia para abrir nuevas fronteras en esta búsqueda definitiva.

[IMG]http://s5.postimage.org/cmeqpb2rb/RIPEADO.png[/IMG]
[quote][center][b]
Format : AVI
Format/Info : Audio Video Interleave
File size : 660 MiB
Duration : 45mn 11s
Overall bit rate : 2 042 Kbps
Writing application : VirtualDubMod 1.5.4.1 (build 2178/release)
Writing library : VirtualDubMod build 2178/release

Video
ID : 0
Format : MPEG-4 Visual
Format profile : Advanced Simple@L5
Format settings, BVOP : 1
Format settings, QPel : No
Format settings, GMC : No warppoints
Format settings, Matrix : Custom
Codec ID : XVID
Codec ID/Hint : XviD
Duration : 45mn 11s
Bit rate : 1 907 Kbps
Width : 720 pixels
Height : 416 pixels
Display aspect ratio : 16:9
Frame rate : 25.000 fps
Color space : YUV
Chroma subsampling : 4:2:0
Bit depth : 8 bits
Scan type : Progressive
Compression mode : Lossy
Bits/(Pixel*Frame) : 0.255
Stream size : 616 MiB (93%)
Writing library : XviD 1.2.1 (UTC 2008-12-04)

Audio
ID : 1
Format : MPEG Audio
Format version : Version 1
Format profile : Layer 3
Mode : Joint stereo
Mode extension : MS Stereo
Codec ID : 55
Codec ID/Hint : MP3
Duration : 45mn 11s
Bit rate mode : Constant
Bit rate : 128 Kbps
Channel(s) : 2 channels
Sampling rate : 48.0 KHz
Compression mode : Lossy
Stream size : 41.4 MiB (6%)
Alignment : Aligned on interleaves
Interleave, duration : 80 ms (2.00 video frames)
Interleave, preload duration : 504 ms
Writing library : LAME3.98.2

[IMG]http://s5.postimage.org/c8kcfux83/flag_spain.png[/IMG]
[B]EN ESPAÑOL | DE ESPAÑA[/B] [/b][/center][/quote]

[img]http://s5.postimage.org/w2zgbtxvb/CAPTURAS.png[/img]
[IMG]http://s5.postimage.org/sf0g7larb/3_N_BU5_CA_D_Dl05_1d2_s.jpg[/IMG]
[img]http://s5.postimage.org/mpk7na4l3/3_N_BU5_CA_D_Dl05_2d2_s.jpg[/img]

[img]http://s5.postimage.org/yj19pofxz/DOWNLOAD.png[/img]
[url=http://ul.to/ref/7172673][img]http://uploaded.net/img/uploaded.png[/img][/url]
[B][SIZE=4]EN BUSCA[COLOR=BLUE] || [/COLOR][COLOR=RED]DE DIOS[/COLOR][/SIZE][/B]
[CODE] http://ul.to/ffbc2q2s
http://ul.to/7i5krox6[/CODE]

[IMG]http://s5.postimage.org/dz3dhcerb/CULTURA.png[/IMG]
[B]‘’Yo soy de la época en la que un disco pirata era un disco no oficial de Led Zepelin, o de los Rolling Stones, eran estos vinilos blancos, con una fotocopia…
Para mi el disco pirata fue siempre algo difícil de conseguir, un articulo de colección, una especie de joya única’’ -Andrés Calamaro.[/B][/CENTER]

Ver Online HD

Comenta con tu Facebook :

Se el primero en dejar un comentario

DEJAR UN COMENTARIO

Su Email no sera publicado.


*


hd porn video