El Tsunami de Japón ¿como ocurrió? [MP4|360p]-[Castellano]-[2012]


El 11 de marzo de 2011 un terremoto magnitud 9.0 en la escala de Richter golpea Japón.

Tras el sismo se generó una alerta de maremoto (tsunami) para la costa pacífica del Japón y otros países, incluidos Nueva Zelanda, Australia, Rusia, Guam, Filipinas, Indonesia, Papúa Nueva Guinea, Nauru, Hawái, islas Marianas del Norte, Estados Unidos, Taiwán, América Central, México y las costas de América del Sur, especialmente Colombia, Ecuador, Perú y Chile.

La alerta de tsunami emitida por el Japón fue la más grave en su escala local de alerta, lo que implica que se esperaba una ola de 10 metros de altura. La agencia de noticias Kyodo informó que un tsunami de 4 m de altura había golpeado la Prefectura de Iwate en el Japón.

Se observó un tsunami de 10 metros de altura en el aeropuerto de Sendai, en la prefectura de Miyagi, que quedó inundado, con olas que barrieron coches y edificios a medida que se adentraban en tierra.

Se habrían detectado, horas más tarde, alrededor de 105 réplicas del terremoto, una alerta máxima nuclear y 1.000 veces más radiación de lo que producía el Japón mismo debido a los incendios ocasionados en una planta atómica. Se temió más tarde una posible fuga radiactiva.

Finalmente el tsunami azotó las costas de Hawái y toda la costa sudamericana con daños mínimos gracias a los sistemas de alerta temprana liderados por el Centro de Alerta de Tsunamis del Pacífico.


Format : MPEG-4
Format profile : Base Media / Version 2
Codec ID : mp42
File size : 189 MiB
Duration : 46mn 51s
Overall bit rate mode : Variable
Overall bit rate : 564 Kbps
Encoded date : UTC 2012-09-03 20:15:05
Tagged date : UTC 2012-09-03 20:15:05
gsst : 0
gstd : 2811866
gssd : B4A7D0D45MM1355827672065520
gshh : r18—sn-1gi7zn7s.c.youtube.com

Video
ID : 1
Format : AVC
Format/Info : Advanced Video Codec
Format profile : [email protected]
Format settings, CABAC : No
Format settings, ReFrames : 1 frame
Codec ID : avc1
Codec ID/Info : Advanced Video Coding
Duration : 46mn 51s
Bit rate : 466 Kbps
Maximum bit rate : 1 420 Kbps
Width : 638 pixels
Height : 360 pixels
Display aspect ratio : 16:9
Frame rate mode : Constant
Frame rate : 25.000 fps
Color space : YUV
Chroma subsampling : 4:2:0
Bit depth : 8 bits
Scan type : Progressive
Bits/(Pixel*Frame) : 0.081
Stream size : 156 MiB (83%)
Tagged date : UTC 2012-09-03 20:15:08

Audio
ID : 2
Format : AAC
Format/Info : Advanced Audio Codec
Format profile : LC
Codec ID : 40
Duration : 46mn 51s
Bit rate mode : Variable
Bit rate : 96.0 Kbps
Maximum bit rate : 104 Kbps
Channel(s) : 2 channels
Channel positions : Front: L R
Sampling rate : 44.1 KHz
Compression mode : Lossy
Stream size : 32.2 MiB (17%)
Title : IsoMedia File Produced by Google, 5-11-2011
Encoded date : UTC 2012-09-03 20:15:07
Tagged date : UTC 2012-09-03 20:15:08



EN ESPAÑOL | DE ESPAÑA




EL TSUNAMI DE JAPÓN || ¿COMO OCURRIO?

http://ul.to/l0v3m5qq
Ver Online HD

Comenta con tu Facebook :

Be the first to comment

Leave a Reply

Tu dirección de correo no será publicada.


*