El proyecto de Harvey Weinstein [SATRip][Castellano][2011]


Harvey Weinstein es quizá el productor más poderoso de Hollywood. Su carrera comenzó como promotor de conciertos en Buffalo, hasta llegar a fundar importantes productoras como Miramax y Weinstein Productions.

Entre sus éxitos están taquillazos del cine independiente como “Pulp Fiction”, “El paciente inglés” o “La vida es bella” y grandes proyectos como la trilogía “El señor de los anillos”.
Es tan famoso por su capacidad de convertir en taquillazos películas de producción independiente como por su agresividad. Para muchos es el último gran ‘mogul’ de Hollywood y un gran descubridor de talento; para otros, un auténtico tirano.
En este documental intervienen muchos de lo que han trabajado con él, como Quentin Tarantino, Rob Marshall y Martin Scorsese.

Format : AVI
Format/Info : Audio Video Interleave
File size : 998 MiB
Duration : 1h 31mn
Overall bit rate : 1 521 Kbps

Video
ID : 0
Format : MPEG-4 Visual
Format profile : Advanced [email protected]
Format settings, BVOP : 1
Format settings, QPel : No
Format settings, GMC : No warppoints
Format settings, Matrix : Custom
Codec ID : XVID
Codec ID/Hint : XviD
Duration : 1h 31mn
Bit rate : 1 385 Kbps
Width : 720 pixels
Height : 400 pixels
Display aspect ratio : 16:9
Frame rate : 25.000 fps
Color space : YUV
Chroma subsampling : 4:2:0
Bit depth : 8 bits
Scan type : Progressive
Compression mode : Lossy
Bits/(Pixel*Frame) : 0.192
Stream size : 909 MiB (91%)
Writing library : XviD 1.2.1 (UTC 2008-12-04)

Audio
ID : 1
Format : MPEG Audio
Format version : Version 1
Format profile : Layer 3
Mode : Joint stereo
Mode extension : MS Stereo
Codec ID : 55
Codec ID/Hint : MP3
Duration : 1h 31mn
Bit rate mode : Constant
Bit rate : 128 Kbps
Channel(s) : 2 channels
Sampling rate : 48.0 KHz
Compression mode : Lossy
Stream size : 84.0 MiB (8%)
Alignment : Aligned on interleaves
Interleave, duration : 80 ms (2.00 video frames)
Interleave, preload duration : 504 ms


EN ESPAÑOL | DE ESPAÑA




EL PROYECTO DE || HARVEY WEINSTEIN

Código:
http://ul.to/9b6k263f
http://ul.to/5kvy9zeq
http://ul.to/8bgc380o
http://ul.to/wo3e8jxi


‘’Yo soy de la época en la que un disco pirata era un disco no oficial de Led Zepelin, o de los Rolling Stones, eran estos vinilos blancos, con una fotocopia…
Para mi el disco pirata fue siempre algo difícil de conseguir, un articulo de colección, una especie de joya única’’ -Andrés Calamaro.

Ver Online HD

Comenta con tu Facebook :

Be the first to comment

Leave a Reply

Tu dirección de correo no será publicada.


*