El planeta en Venta [MP4|360p]-[2012]-[RTVE]-[Castellano]


En los últimos años han cambiado de manos veinte millones de hectáreas y, de seguir la tendencia, decenas de millones seguirán la misma suerte.

La crisis financiera de 2008 ha despertado al mundo de las finanzas, que ha visto en la agricultura un nuevo mercado, mucho más seguro que la especulación bursátil. El repentino interés de los inversores por las tierras cultivables se debe a que se han dado cuenta de que con ese tipo de inversión no corren riesgo de quiebra.

Según las previsiones, la población mundial va a pasar de los 6.500 millones de habitantes actuales a 9.200 millones en el año 2050. “Esto requerirá un aumento en la producción de alimentos y habrá que duplicar la producción agrícola para satisfacer el crecimiento demográfico”, explica el Director General de la FAO.


Format : MPEG-4
Format profile : Base Media / Version 2
Codec ID : mp42
File size : 225 MiB
Duration : 54mn 11s
Overall bit rate mode : Variable
Overall bit rate : 580 Kbps
Encoded date : UTC 2012-07-08 00:30:02
Tagged date : UTC 2012-07-08 00:30:02
gsst : 0
gstd : 3251651
gssd : B4A7D0D22MH1355829121173201
gshh : r5—sn-1gi7zn7l.c.youtube.com

Video
ID : 1
Format : AVC
Format/Info : Advanced Video Codec
Format profile : [email protected]
Format settings, CABAC : No
Format settings, ReFrames : 1 frame
Codec ID : avc1
Codec ID/Info : Advanced Video Coding
Duration : 54mn 11s
Bit rate : 482 Kbps
Maximum bit rate : 1 603 Kbps
Width : 640 pixels
Height : 360 pixels
Display aspect ratio : 16:9
Frame rate mode : Constant
Frame rate : 25.000 fps
Color space : YUV
Chroma subsampling : 4:2:0
Bit depth : 8 bits
Scan type : Progressive
Bits/(Pixel*Frame) : 0.084
Stream size : 187 MiB (83%)
Tagged date : UTC 2012-07-08 00:30:04

Audio
ID : 2
Format : AAC
Format/Info : Advanced Audio Codec
Format profile : LC
Codec ID : 40
Duration : 54mn 11s
Bit rate mode : Variable
Bit rate : 96.0 Kbps
Maximum bit rate : 126 Kbps
Channel(s) : 2 channels
Channel positions : Front: L R
Sampling rate : 44.1 KHz
Compression mode : Lossy
Stream size : 37.2 MiB (17%)
Title : IsoMedia File Produced by Google, 5-11-2011
Encoded date : UTC 2012-07-08 00:30:03
Tagged date : UTC 2012-07-08 00:30:04



EN ESPAÑOL | DE ESPAÑA




EL PLANETA || EN VENTA

Código:
http://ul.to/4zpq4h12


‘’Yo soy de la época en la que un disco pirata era un disco no oficial de Led Zepelin, o de los Rolling Stones, eran estos vinilos blancos, con una fotocopia…
Para mi el disco pirata fue siempre algo difícil de conseguir, un articulo de colección, una especie de joya única’’ -Andrés Calamaro.

Ver Online HD

Comenta con tu Facebook :

Be the first to comment

Leave a Reply

Tu dirección de correo no será publicada.


*