El oso de hielo [NatGeo]-[HD]-[Castellano]-[2012]

[center][imG]http://s5.postimage.org/52hkgfdmf/0_S0.png[/img]

[img]http://s5.postimage.org/4w7yk60fr/Sinopsis.png[/img]
[B]El depredador alfa del Ártico, el oso polar, está en peligro. ¿Qué va a ser de este gigante de los hielos cuando el hielo desaparezca?[/B]

Debido al calentamiento global de la tierra, cientos de osos polares se ven obligados a emprender una migración épica a través del océano, soportando después un duro verano en tierras lejanas, demasiado cálidas para ellos.

[IMG]http://s5.postimage.org/cmeqpb2rb/RIPEADO.png[/IMG]
[quote][center][b]
Format                                   : AVI

Format/Info                              : Audio Video Interleave

File size                                : 1.17 GiB

Duration                                 : 44mn 59s

Overall bit rate                         : 3 729 Kbps

Movie name                               : El Oso del Hielo DZ By JgN

Genre                                    : documental

Subject                                  : Ripeado por JgN

Writing application                      : VirtualDubMod 1.5.4.1 (build 2178/release) VirtualDubMod build 2178/release

IMIT                                     : Fraps V3.5.9

 

Video

ID                                       : 0

Format                                   : MPEG-4 Visual

Format profile                           : Advanced [email protected]

Format settings, BVOP                    : 1

Format settings, QPel                    : No

Format settings, GMC                     : No warppoints

Format settings, Matrix                  : Default (H.263)

Muxing mode                              : Packed bitstream

Codec ID                                 : XVID

Codec ID/Hint                            : XviD

Duration                                 : 44mn 59s

Bit rate                                 : 3 529 Kbps

Width                                    : 1 360 pixels

Height                                   : 768 pixels

Display aspect ratio                     : 16:9

Frame rate                               : 25.000 fps

Color space                              : YUV

Chroma subsampling                       : 4:2:0

Bit depth                                : 8 bits

Scan type                                : Progressive

Compression mode                         : Lossy

Bits/(Pixel*Frame)                       : 0.135

Stream size                              : 1.11 GiB (95%)

Writing library                          : XviD 1.2.1 (UTC 2008-12-04)

 

Audio

ID                                       : 1

Format                                   : MPEG Audio

Format version                           : Version 1

Format profile                           : Layer 3

Mode                                     : Joint stereo

Mode extension                           : MS Stereo

Codec ID                                 : 55

Codec ID/Hint                            : MP3

Duration                                 : 44mn 59s

Bit rate mode                            : Constant

Bit rate                                 : 192 Kbps

Channel(s)                               : 2 channels

Sampling rate                            : 44.1 KHz

Compression mode                         : Lossy

Stream size                              : 61.8 MiB (5%)

Alignment                                : Split accross interleaves

Interleave, duration                     : 80 ms (2.00 video frames)

Interleave, preload duration             : 500 ms

Writing library                          : LAME3.98r

Encoding settings                        : -m j -V 4 -q 2 -lowpass 18.6 -b 192

[img]http://uploaded.net/img/uploaded.png[/img]
PARTES DEL ARCHIVO: 3 – 2 de 400MB + 1 de 390MB[/b][/center][/quote]

[img]http://s5.postimage.org/w2zgbtxvb/CAPTURAS.png[/img]
[img]http://s5.postimage.org/7ijdu9vp3/3_L0_S0_D_Hl3_L0_s.jpg[/img]

[img]http://s5.postimage.org/yj19pofxz/DOWNLOAD.png[/img]
[IMG]http://s5.postimage.org/za0fep3g3/uploaded.png[/IMG]
[B][SIZE=4]EL OSO[COLOR=BLUE]||[/COLOR] [COLOR=RED]DE HIELO[/COLOR][/SIZE][/B]
[CODE] http://ul.to/92scnyfs
http://ul.to/s5ohbh1a
http://ul.to/y4j55oq5[/CODE] [/CENTER]

Ver Online HD

Comenta con tu Facebook :

Be the first to comment

Leave a Reply

Tu dirección de correo no será publicada.


*