El mundo según Monsanto [SATRip]-[2007]-[Castellano]


Documental que denuncia los efectos negativos que provocan los productos agroquímicos y las semillas de soja transgénica que comercializa la empresa más grande del mundo del sector.

En síntesis, expone la cara más oscura de la lógica económica neoliberal, a través de la realidad agrícola de América del Norte y del Sur, especialmente de Argentina.
Hoy Monsanto es el primer semillero de soja, maíz, algodón y productor de agroquímicos del mundo. Quien dice semilla, dice Monsanto, pero también dice alimentos.
Es la empresa norteamericana que maneja el mercado mundial de la soja. Es la misma empresa que fabricó PCB, y ocultó durante 50 años que ese aceite era cancerígeno. Es la empresa que produce y que patentó las semillas de soja genéticamente modificadas, para resistir agroquímicos y tempestades…


Format : AVI
Format/Info : Audio Video Interleave
File size : 1 024 MiB
Duration : 1h 49mn
Overall bit rate : 1 313 Kbps
Writing library : VirtualDub-MPEG2 build 24417/release
Video
ID : 0
Format : MPEG-4 Visual
Format profile : Advanced [email protected]
Format settings, BVOP : 2
Format settings, QPel : No
Format settings, GMC : No warppoints
Format settings, Matrix : Default (H.263)
Muxing mode : Packed bitstream
Codec ID : XVID
Codec ID/Hint : XviD
Duration : 1h 49mn
Bit rate : 1 175 Kbps
Width : 640 pixels
Height : 360 pixels
Display aspect ratio : 16:9
Frame rate : 25.000 fps
Color space : YUV
Chroma subsampling : 4:2:0
Bit depth : 8 bits
Scan type : Progressive
Compression mode : Lossy
Bits/(Pixel*Frame) : 0.204
Stream size : 917 MiB (90%)
Writing library : XviD 1.1.0 (UTC 2005-11-22)

Audio
ID : 1
Format : MPEG Audio
Format version : Version 1
Format profile : Layer 3
Mode : Joint stereo
Mode extension : MS Stereo
Codec ID : 55
Codec ID/Hint : MP3
Duration : 1h 49mn
Bit rate mode : Constant
Bit rate : 128 Kbps
Channel(s) : 2 channels
Sampling rate : 48.0 KHz
Compression mode : Lossy
Stream size : 99.8 MiB (10%)
Alignment : Split accross interleaves
Interleave, duration : 40 ms (1.00 video frame)
Interleave, preload duration : 500 ms


EN ESPAÑOL | DE ESPAÑA




EL MUNDO SEGÚN || MONSANTO

http://ul.to/gvurb4bi
http://ul.to/f809937z
http://ul.to/za8pxj79


‘’Yo soy de la época en la que un disco pirata era un disco no oficial de Led Zepelin, o de los Rolling Stones, eran estos vinilos blancos, con una fotocopia…
Para mi el disco pirata fue siempre algo difícil de conseguir, un articulo de colección, una especie de joya única’’ -Andrés Calamaro.

Ver Online HD

Comenta con tu Facebook :

Be the first to comment

Leave a Reply

Tu dirección de correo no será publicada.


*