El misterio de las líneas de Nazca (Descifrado) [2010]-[SATRip]-[Castellano]

[center][imG]http://s5.postimage.org/n3ttbm5kn/lineas3.png[/img]

[img]http://s5.postimage.org/4w7yk60fr/Sinopsis.png[/img]
[B]Las líneas de Nazca son antiguos geoglifos que se encuentran en las Pampas de Jumana, en el desierto de Nazca, entre las poblaciones de Nazca y Palpa (Perú). Fueron trazadas por la cultura Nazca y están compuestas por varios cientos de figuras que abarcan desde diseños tan simples como líneas hasta complejas figuras zoomorfas, fitomorfas y geométricas que aparecen trazadas sobre la superficie terrestre.

Desde 1994 el Comité de la UNESCO ha inscrito las líneas y geoglifos de Nazca y de Pampas de Jumana como Patrimonio de la Humanidad.

Sin embargo, en los últimos años han sufrido graves daños por la construcción de la autopista panamericana y las rodadas de todoterrenos.[/B]

En este documental se habla de que en el desierto del sur de Perú se halla uno de los grandes misterios de la humanidad: estas líneas grabadas en el suelo de animales, humanos y formas geométricas que cubren cientos de kilómetros.

Se han dicho muchas cosas sobre ellas pero todavía no está claro su origen…

[IMG]http://s5.postimage.org/cmeqpb2rb/RIPEADO.png[/IMG]
[quote][center][b]
Format                                   : AVI

Format/Info                              : Audio Video Interleave

File size                                : 868 MiB

Duration                                 : 50mn 9s

Overall bit rate                         : 2 419 Kbps

Writing application                      : VirtualDubMod 1.5.4.1 (build 2178/release)

Writing library                          : VirtualDubMod build 2178/release

 

Video

ID                                       : 0

Format                                   : MPEG-4 Visual

Format profile                           : Advanced [email protected]

Format settings, BVOP                    : 1

Format settings, QPel                    : No

Format settings, GMC                     : No warppoints

Format settings, Matrix                  : Custom

Codec ID                                 : XVID

Codec ID/Hint                            : XviD

Duration                                 : 50mn 9s

Bit rate                                 : 2 283 Kbps

Width                                    : 720 pixels

Height                                   : 400 pixels

Display aspect ratio                     : 16:9

Frame rate                               : 25.000 fps

Color space                              : YUV

Chroma subsampling                       : 4:2:0

Bit depth                                : 8 bits

Scan type                                : Progressive

Compression mode                         : Lossy

Bits/(Pixel*Frame)                       : 0.317

Stream size                              : 819 MiB (94%)

Writing library                          : XviD 1.2.1 (UTC 2008-12-04)

 

Audio

ID                                       : 1

Format                                   : MPEG Audio

Format version                           : Version 1

Format profile                           : Layer 3

Mode                                     : Joint stereo

Codec ID                                 : 55

Codec ID/Hint                            : MP3

Duration                                 : 50mn 9s

Bit rate mode                            : Constant

Bit rate                                 : 128 Kbps

Channel(s)                               : 2 channels

Sampling rate                            : 48.0 KHz

Compression mode                         : Lossy

Stream size                              : 45.9 MiB (5%)

Alignment                                : Aligned on interleaves

Interleave, duration                     : 80 ms (2.00 video frames)

Interleave, preload duration             : 504 ms

[IMG]http://s5.postimage.org/c8kcfux83/flag_spain.png[/IMG]
[B]EN ESPAÑOL | DE ESPAÑA[/B] [/b][/center][/quote]

[img]http://s5.postimage.org/w2zgbtxvb/CAPTURAS.png[/img]
[img]http://s5.postimage.org/qm5t806gn/D3_SCi_FR4_D0_Ll_Nl_A5_NA5_Ka_s.jpg[/img]

[img]http://s5.postimage.org/yj19pofxz/DOWNLOAD.png[/img]
[url=http://ul.to/ref/7172673][img]http://uploaded.net/img/uploaded.png[/img][/url]
[B][SIZE=4]EL MISTERIO DE LAS[COLOR=BLUE] || [/COLOR][COLOR=RED]LINEAS DE NAZCA [DESCIFRADO][/COLOR][/SIZE][/B]
[CODE]http://ul.to/fann93ij
http://ul.to/1xtiuywt[/CODE]

[IMG]http://s5.postimage.org/dz3dhcerb/CULTURA.png[/IMG]
[B]‘’Yo soy de la época en la que un disco pirata era un disco no oficial de Led Zepelin, o de los Rolling Stones, eran estos vinilos blancos, con una fotocopia…
Para mi el disco pirata fue siempre algo difícil de conseguir, un articulo de colección, una especie de joya única’’ -Andrés Calamaro.[/B]
[/CENTER]

Ver Online HD

Comenta con tu Facebook :

Be the first to comment

Leave a Reply

Tu dirección de correo no será publicada.


*