El Huracán Sandy | Alerta en Nueva York [2012]-[SATRip]-[NatGeo]-[Castellano]

[center][imG]http://s5.postimage.org/ody0md7zr/fake_hurricane_sandy_2.png[/img]

[img]http://s5.postimage.org/4w7yk60fr/Sinopsis.png[/img]
[b]Bajo el título “El huracán Sandy: Alerta en Nueva York”, esta impresionante documental analiza la formación de esta tormenta para entender cómo pudo originar rachas de viento de más de 145 kilómetros hora, fenómeno de consecuencias letales para la población como el desalojo de sus hogares de miles de personas y una pérdida de corriente eléctrica que afectó a millones de norteamericanos, especialmente en Nueva York y Nueva Jersey, donde todavía siguen sufriendo las secuelas de Sandy.[/b]

Por primera vez, un documental mostrará con detalle cómo se desarrolla y crece una tormenta de este tipo, conocida como “Frankestorm” por algunos medios estadounidenses, que en esta ocasión se ha llevado la vida de casi 200 personas desde el Caribe hasta la costa este. La producción también estudia en profundidad la imprevisibilidad de la fuerzas de la naturaleza en el siglo XXI.

“El huracán Sandy: Alerta en Nueva York” incluye los testimonios de numerosas personas afectadas, así como de los miembros de los servicios de emergencia, expertos en meteorología y cazadores de tormentas.

[IMG]http://s5.postimage.org/cmeqpb2rb/RIPEADO.png[/IMG]
[quote][center][b]
Format                                   : AVI

Format/Info                              : Audio Video Interleave

File size                                : 1.28 GiB

Duration                                 : 44mn 59s

Overall bit rate                         : 4 072 Kbps

Movie name                               : El Huracan Sandy Alerta en Nueva York DZ By JgN

Genre                                    : documental

Subject                                  : Ripeado por JgN

Writing application                      : VirtualDubMod 1.5.4.1 (build 2178/release) VirtualDubMod build 2178/release

 

Video

ID                                       : 0

Format                                   : MPEG-4 Visual

Format profile                           : Advanced [email protected]

Format settings, BVOP                    : 1

Format settings, QPel                    : No

Format settings, GMC                     : No warppoints

Format settings, Matrix                  : Default (H.263)

Muxing mode                              : Packed bitstream

Codec ID                                 : XVID

Codec ID/Hint                            : XviD

Duration                                 : 44mn 59s

Bit rate                                 : 3 873 Kbps

Width                                    : 1 360 pixels

Height                                   : 768 pixels

Display aspect ratio                     : 16:9

Frame rate                               : 25.000 fps

Color space                              : YUV

Chroma subsampling                       : 4:2:0

Bit depth                                : 8 bits

Scan type                                : Progressive

Compression mode                         : Lossy

Bits/(Pixel*Frame)                       : 0.148

Stream size                              : 1.22 GiB (95%)

Writing library                          : XviD 1.2.1 (UTC 2008-12-04)

 

Audio

ID                                       : 1

Format                                   : MPEG Audio

Format version                           : Version 1

Format profile                           : Layer 3

Mode                                     : Joint stereo

Mode extension                           : MS Stereo

Codec ID                                 : 55

Codec ID/Hint                            : MP3

Duration                                 : 44mn 59s

Bit rate mode                            : Constant

Bit rate                                 : 192 Kbps

Channel(s)                               : 2 channels

Sampling rate                            : 44.1 KHz

Compression mode                         : Lossy

Stream size                              : 61.8 MiB (5%)

Alignment                                : Split accross interleaves

Interleave, duration                     : 80 ms (2.00 video frames)

Interleave, preload duration             : 500 ms

Writing library                          : LAME3.98r

Encoding settings                        : -m j -V 4 -q 2 -lowpass 18.6 -b 192
[img]http://uploaded.net/img/uploaded.png[/img]
PARTES DEL ARCHIVO: 4 – 3 de 400MB + 1 de 80MB[/b][/center][/quote]

[img]http://s5.postimage.org/w2zgbtxvb/CAPTURAS.png[/img]
[img]http://s5.postimage.org/z21rl7hyv/HURAK_N_S4_NDi_AL3_RTA_NY0_RK_s.jpg[/img]

[img]http://s5.postimage.org/yj19pofxz/DOWNLOAD.png[/img]
[IMG]http://s5.postimage.org/za0fep3g3/uploaded.png[/IMG]
[B][SIZE=4]EL HURACÁN SANDY[COLOR=BLUE]||[/COLOR] [COLOR=RED]ALERTA EN NUEVA YORK[/COLOR][/SIZE][/B]
[CODE]http://ul.to/2kw6a7su
http://ul.to/vredakso
http://ul.to/ht1pasei
http://ul.to/laa98qz4[/code][/CENTER]

Ver Online HD

Comenta con tu Facebook :

Be the first to comment

Leave a Reply

Tu dirección de correo no será publicada.


*