El Fascismo, en color [2/2]-[SATRip]-[RTVE]-[Castellano]-[2007]

[center][imG]http://s5.postimage.org/gksp9ychj/10087014_1287737463_785000.png[/img]

[img]http://s5.postimage.org/4w7yk60fr/Sinopsis.png[/img]
[B]’El Fascismo en color’ es una producción documental estadounidense sobre el surgimiento, auge y caída del fascismo italiano y su principal líder, Benito Mussolini.

Dividida en dos capítulos, ‘La toma del poder’ y ‘Mussolini en el poder’, narrado en su versión original por Bill Paterson, cuenta con abundantes imágenes de archivo en color y coloreadas, entrevistas, y recreaciones dramatizadas de algunos pasajes y protagonistas de la Historia.[/B]

En el mismo se hace un recorrido por la I Guerra Mundial y la repercusión que su final tuvo en el surgimiento del movimiento fascista en 1919, la lucha en las calles de pueblos y ciudades contra otros movimientos como socialistas, comunistas y anarquistas llevada a cabo por los camisas negras.

[IMG]http://s5.postimage.org/83t6z17sn/a_mussolini.png[/IMG]

La Marcha sobre Roma y la toma del poder, el asesinato de Matteoti, la implantación de la dictadura, su apaciguamiento de la Iglesia Católica mediante la firma del Pacto de Letrán con el Vaticano o la modernización de Italia. El colonialismo italiano con la pacificación de Libia o la brutal invasión y conquista de Etiopía también están presentes, lo mismo que su participación en la Guerra Civil Española.

[IMG]http://s5.postimage.org/cmeqpb2rb/RIPEADO.png[/IMG]
[quote][center][b]
Format : AVI
Format/Info : Audio Video Interleave
File size : 1 008 MiB
Duration : 49mn 39s
Overall bit rate : 2 839 Kbps
Writing application : VirtualDubMod 1.5.4.1 (build 2178/release)
Writing library : VirtualDubMod build 2178/release

Video
ID : 0
Format : MPEG-4 Visual
Format profile : Advanced [email protected]
Format settings, BVOP : No
Format settings, QPel : No
Format settings, GMC : No warppoints
Format settings, Matrix : Custom
Codec ID : XVID
Codec ID/Hint : XviD
Duration : 49mn 39s
Bit rate : 2 638 Kbps
Width : 720 pixels
Height : 400 pixels
Display aspect ratio : 16:9
Frame rate : 25.000 fps
Color space : YUV
Chroma subsampling : 4:2:0
Bit depth : 8 bits
Scan type : Progressive
Compression mode : Lossy
Bits/(Pixel*Frame) : 0.366
Stream size : 937 MiB (93%)
Writing library : XviD 1.2.1 (UTC 2008-12-04)

Audio
ID : 1
Format : MPEG Audio
Format version : Version 1
Format profile : Layer 3
Mode : Joint stereo
Mode extension : MS Stereo
Codec ID : 55
Codec ID/Hint : MP3
Duration : 49mn 38s
Bit rate mode : Constant
Bit rate : 192 Kbps
Channel(s) : 2 channels
Sampling rate : 48.0 KHz
Compression mode : Lossy
Stream size : 68.2 MiB (7%)
Alignment : Aligned on interleaves
Interleave, duration : 40 ms (1.00 video frame)
Interleave, preload duration : 504 ms

[IMG]http://s5.postimage.org/c8kcfux83/flag_spain.png[/IMG]
[B]EN ESPAÑOL | DE ESPAÑA[/B] [/b][/center][/quote]

[img]http://s5.postimage.org/w2zgbtxvb/CAPTURAS.png[/img]
[IMG]http://s5.postimage.org/tnobt82pj/FA5_Cl5_M_in_C0_L0_R_1d2_lat0mad3p0d3r_s.jpg[/IMG]
[IMG]http://s5.postimage.org/w3q572ks7/FA5_Cl5_M_in_C0_L0_R_2d2_mu550lini_n_L_p0d3r_s.jpg[/IMG]

[img]http://s5.postimage.org/yj19pofxz/DOWNLOAD.png[/img]
[url=http://ul.to/ref/7172673][img]http://uploaded.net/img/uploaded.png[/img][/url]
[B][SIZE=4]FASCISMO[COLOR=BLUE] || [/COLOR][COLOR=RED]EN COLOR[/COLOR][/SIZE][/B]

[B][SIZE=3] [COLOR=GREEN] LA TOMA DE PODER [1/2][/COLOR][/SIZE][/B]
[CODE]http://ul.to/vl6e75ap
http://ul.to/cifjo80y[/CODE]
[B][SIZE=3] [COLOR=GREEN]MUSSOLINI EN EL PODER [2/2][/COLOR][/SIZE][/B]
[CODE]http://ul.to/vqwter21
http://ul.to/6m4iwjmt[/CODE]

[IMG]http://s5.postimage.org/dz3dhcerb/CULTURA.png[/IMG]
[B]‘’Yo soy de la época en la que un disco pirata era un disco no oficial de Led Zepelin, o de los Rolling Stones, eran estos vinilos blancos, con una fotocopia…
Para mi el disco pirata fue siempre algo difícil de conseguir, un articulo de colección, una especie de joya única’’ -Andrés Calamaro.[/B][/CENTER]

Ver Online HD

Comenta con tu Facebook :

Be the first to comment

Leave a Reply

Tu dirección de correo no será publicada.


*