El Ciber-Sexo en España [Odisea]-[SATRip]-[Castellano]-[2002]

[center][imG]http://s5.postimage.org/f1rsohinr/Cyber_sex.png[/img]

[img]http://s5.postimage.org/4w7yk60fr/Sinopsis.png[/img]
[B]Documental del canal Odisea sobre un estudio del ciber-sexo en España con testimonios de cibernautas, profesionales del sexo y personas que acceden a tales servicios[/B]

[IMG]http://s5.postimage.org/cmeqpb2rb/RIPEADO.png[/IMG]
[quote][center][b]
Format                                   : AVI

Format/Info                              : Audio Video Interleave

File size                                : 341 MiB

Duration                                 : 46mn 4s

Overall bit rate mode                    : Variable

Overall bit rate                         : 1 036 Kbps

Writing application                      : Nandub v1.0rc2

Writing library                          : Nandub build 1852/release

 

Video

ID                                       : 0

Format                                   : MPEG-4 Visual

Format settings, BVOP                    : Yes

Format settings, QPel                    : No

Format settings, GMC                     : No warppoints

Format settings, Matrix                  : Default (H.263)

Codec ID                                 : DX50

Codec ID/Hint                            : DivX 5

Duration                                 : 46mn 4s

Bit rate                                 : 900 Kbps

Width                                    : 360 pixels

Height                                   : 270 pixels

Display aspect ratio                     : 4:3

Frame rate                               : 25.000 fps

Color space                              : YUV

Chroma subsampling                       : 4:2:0

Bit depth                                : 8 bits

Scan type                                : Progressive

Compression mode                         : Lossy

Bits/(Pixel*Frame)                       : 0.370

Stream size                              : 297 MiB (87%)

Writing library                          : DivX 5.0.3 (UTC 2003-01-24)

 

Audio

ID                                       : 1

Format                                   : MPEG Audio

Format version                           : Version 1

Format profile                           : Layer 3

Mode                                     : Joint stereo

Mode extension                           : MS Stereo

Codec ID                                 : 55

Codec ID/Hint                            : MP3

Duration                                 : 46mn 4s

Bit rate mode                            : Variable

Bit rate                                 : 124 Kbps

Channel(s)                               : 2 channels

Sampling rate                            : 44.1 KHz

Compression mode                         : Lossy

Stream size                              : 40.7 MiB (12%)

Alignment                                : Aligned on interleaves

Interleave, duration                     : 26 ms (0.65 video frame)

Interleave, preload duration             : 479 ms

Writing library                          : LAME3.89 (beta)

[IMG]http://s5.postimage.org/c8kcfux83/flag_spain.png[/IMG]
[B]EN ESPAÑOL | DE ESPAÑA[/B] [/b][/center][/quote]

[img]http://s5.postimage.org/w2zgbtxvb/CAPTURAS.png[/img]
[img]http://s5.postimage.org/7kil99t4n/S3_X_Cyb3rs3x0_3n_3_SPANY4_s.jpg[/img]

[img]http://s5.postimage.org/yj19pofxz/DOWNLOAD.png[/img]
[url=http://ul.to/ref/7172673][img]http://uploaded.net/img/uploaded.png[/img][/url]
[B][SIZE=4]CIBER-SEXO EN[COLOR=BLUE] || [/COLOR][COLOR=RED]ESPAÑA[/COLOR][/SIZE][/B]
[CODE]http://ul.to/q5s01rwc[/CODE]

[IMG]http://s5.postimage.org/dz3dhcerb/CULTURA.png[/IMG]
[B]‘’Yo soy de la época en la que un disco pirata era un disco no oficial de Led Zepelin, o de los Rolling Stones, eran estos vinilos blancos, con una fotocopia…
Para mi el disco pirata fue siempre algo difícil de conseguir, un articulo de colección, una especie de joya única’’ -Andrés Calamaro.[/B]
[/CENTER]

Ver Online HD

Comenta con tu Facebook :

Be the first to comment

Leave a Reply

Tu dirección de correo no será publicada.


*