El Bombardero de Propulsión Nuclear Avanzado [MP4|360p]-[Castellano]-[C.Historia]


Una maravilla del combate aéreo, aviones bombarderos propulsados por energía nuclear. Un interesante documental centrado en el mundo de la aviación.

Cita:

Format : MPEG-4
Format profile : Base Media / Version 2
Codec ID : mp42
File size : 161 MiB
Duration : 49mn 56s
Overall bit rate mode : Variable
Overall bit rate : 452 Kbps
Encoded date : UTC 2012-06-26 08:03:42
Tagged date : UTC 2012-06-26 08:03:42
gsst : 0
gstd : 2996325
gssd : B4A7D0D02MM1355829113227276
gshh : r5—sn-1gi7zn7e.c.youtube.com

Video
ID : 1
Format : AVC
Format/Info : Advanced Video Codec
Format profile : [email protected]
Format settings, CABAC : No
Format settings, ReFrames : 1 frame
Codec ID : avc1
Codec ID/Info : Advanced Video Coding
Duration : 49mn 56s
Bit rate : 353 Kbps
Maximum bit rate : 1 445 Kbps
Width : 484 pixels
Height : 360 pixels
Display aspect ratio : 4:3
Frame rate mode : Constant
Frame rate : 25.000 fps
Color space : YUV
Chroma subsampling : 4:2:0
Bit depth : 8 bits
Scan type : Progressive
Bits/(Pixel*Frame) : 0.081
Stream size : 126 MiB (78%)
Tagged date : UTC 2012-06-26 08:03:43

Audio
ID : 2
Format : AAC
Format/Info : Advanced Audio Codec
Format profile : LC
Codec ID : 40
Duration : 49mn 56s
Bit rate mode : Variable
Bit rate : 96.0 Kbps
Maximum bit rate : 118 Kbps
Channel(s) : 2 channels
Channel positions : Front: L R
Sampling rate : 44.1 KHz
Compression mode : Lossy
Stream size : 34.3 MiB (21%)
Title : IsoMedia File Produced by Google, 5-11-2011
Encoded date : UTC 2012-06-26 08:03:43
Tagged date : UTC 2012-06-26 08:03:43



EN ESPAÑOL | DE ESPAÑA




EL BOMBARDERO DE PROPULSIÓN || NUCLEAR AVANZADO

Código:
http://ul.to/9jv4wvl1


‘’Yo soy de la época en la que un disco pirata era un disco no oficial de Led Zepelin, o de los Rolling Stones, eran estos vinilos blancos, con una fotocopia…
Para mi el disco pirata fue siempre algo difícil de conseguir, un articulo de colección, una especie de joya única’’ -Andrés Calamaro.

Ver Online HD

Comenta con tu Facebook :

Be the first to comment

Leave a Reply

Tu dirección de correo no será publicada.


*