El Barça de Guardiola | Un equipo campeón [MP4][360p][Catalán][2012]


Un documental donde se puede ver la revolución que ha supuesto el ex jugador y ahora ex técnico en Can Barça.

La Liga BBVA 08-09 pasará a los anales como la temporada en la que los culés reinventaron el fútbol que Johan Cruyff implantó en el Dream Team. Guardiola, integrante de aquel equipo y debutante en el banquillo del Camp Nou, ha perfeccionado el estilo de juego de los azulgranas hasta conseguir un conjunto demoledor en ataque, sólido en defensa e imparable en la posesión y circulación del balón.


Format : MPEG-4
Format profile : Base Media / Version 2
Codec ID : mp42
File size : 224 MiB
Duration : 42mn 56s
Overall bit rate mode : Variable
Overall bit rate : 728 Kbps

Video
ID : 1
Format : AVC
Format/Info : Advanced Video Codec
Format profile : [email protected]
Format settings, CABAC : No
Format settings, ReFrames : 1 frame
Codec ID : avc1
Codec ID/Info : Advanced Video Coding
Duration : 42mn 56s
Bit rate : 630 Kbps
Maximum bit rate : 1 549 Kbps
Width : 640 pixels
Height : 360 pixels
Display aspect ratio : 16:9
Frame rate mode : Constant
Frame rate : 25.000 fps
Color space : YUV
Chroma subsampling : 4:2:0
Bit depth : 8 bits
Scan type : Progressive
Bits/(Pixel*Frame) : 0.109
Stream size : 193 MiB (86%)
Tagged date : UTC 2012-09-20 14:09:09

Audio
ID : 2
Format : AAC
Format/Info : Advanced Audio Codec
Format profile : LC
Codec ID : 40
Duration : 42mn 56s
Bit rate mode : Variable
Bit rate : 96.0 Kbps
Maximum bit rate : 103 Kbps
Channel(s) : 2 channels
Channel positions : Front: L R
Sampling rate : 44.1 KHz
Compression mode : Lossy
Stream size : 29.5 MiB (13%)
Encoded date : UTC 2012-09-20 14:09:09
Tagged date : UTC 2012-09-20 14:09:09



EN CATALÁN




EL BARÇA DE GUARDIOLA || UN EQUIPO CAMPEÓN

http://ul.to/5pgxz42x


‘’Yo soy de la época en la que un disco pirata era un disco no oficial de Led Zepelin, o de los Rolling Stones, eran estos vinilos blancos, con una fotocopia…
Para mi el disco pirata fue siempre algo difícil de conseguir, un articulo de colección, una especie de joya única’’ -Andrés Calamaro.

Ver Online HD

Comenta con tu Facebook :

Be the first to comment

Leave a Reply

Tu dirección de correo no será publicada.


*