Online Free Audiobook audiobook harrypotter cesme escort fethiye escort kemer escort kusadasi escort marmaris escort kutahya escort kutahya escort manisa escort mugla escort nevsehir escort nigde escort ordu escort corlu escort rize escort sakarya escort yalova escort

El arma secreta de Japón; el i-400 [2012]-[RTVE]-[DVBrip]-[Castellano]

[center][imG]http://s5.postimage.org/8g889nd87/i400.png[/img]

[img]http://s5.postimage.org/4w7yk60fr/Sinopsis.png[/img]
[B] Uno de los secretos mejor guardados de la Segunda Guerra Mundial fue el plan de Japón para bombardear el Canal de Panamá usando un arma secreta nunca vista antes.[/B]

El arma fue tan secreta que los estadounidenses no supieron de su existencia sino hasta el final de la guerra.

[img]http://s5.postimage.org/vgevlzb1z/00cm0018.png[/img]

[IMG]http://s5.postimage.org/cmeqpb2rb/RIPEADO.png[/IMG]
[quote][center][b]
Format : AVI
Format/Info : Audio Video Interleave
Format profile : OpenDML
File size : 1.20 GiB
Duration : 49mn 44s
Overall bit rate : 3 451 Kbps
TCOD : 32186800000
TCDO : 62032400000

Video
ID : 0
Format : MPEG-4 Visual
Format profile : Simple@L1
Format settings, BVOP : No
Format settings, QPel : No
Format settings, GMC : No warppoints
Format settings, Matrix : Default (MPEG)
Codec ID : XVID
Codec ID/Hint : XviD
Duration : 49mn 44s
Bit rate : 3 258 Kbps
Width : 700 pixels
Height : 400 pixels
Display aspect ratio : 16:9
Frame rate : 25.000 fps
Color space : YUV
Chroma subsampling : 4:2:0
Bit depth : 8 bits
Scan type : Interlaced
Scan order : Top Field First
Compression mode : Lossy
Bits/(Pixel*Frame) : 0.465
Stream size : 1.13 GiB (94%)
Writing library : Lavc52.84.0

Audio
ID : 1
Format : AC-3
Format/Info : Audio Coding 3
Mode extension : CM (complete main)
Codec ID : 2000
Duration : 49mn 44s
Bit rate mode : Constant
Bit rate : 128 Kbps
Channel(s) : 2 channels
Channel positions : Front: L R
Sampling rate : 44.1 KHz
Bit depth : 16 bits
Compression mode : Lossy
Stream size : 45.4 MiB (4%)
Alignment : Aligned on interleaves
Interleave, duration : 250 ms (6.25 video frames)
Interleave, preload duration : 278 ms

[img]http://s5.postimage.org/72glecdyv/RIPEDD.png[/img]
[B][SIZE=4]EMITIDO EL 13/12/2012[/SIZE][/B]

[IMG]http://s5.postimage.org/c8kcfux83/flag_spain.png[/IMG]
[B]EN ESPAÑOL | DE ESPAÑA[/B] [/b][/center][/quote]

[img]http://s5.postimage.org/w2zgbtxvb/CAPTURAS.png[/img]
[img]http://s5.postimage.org/ylzhc6to7/El_arma_secreta_de_Jap_el_submarino_I_s.jpg[/img]

[img]http://s5.postimage.org/yj19pofxz/DOWNLOAD.png[/img]
[url=http://ul.to/ref/7172673][img]http://uploaded.net/img/uploaded.png[/img][/url]
[B][SIZE=4]EL ARMA SECRETA DE JAPON[COLOR=BLUE] || [/COLOR][COLOR=RED]EL SUBMARINO I-400[/COLOR][/SIZE][/B]
[CODE]http://ul.to/wuxo5m9p
http://ul.to/uxm0c3wh
http://ul.to/d8yvou4s
http://ul.to/yw2jxqwp[/CODE]

[IMG]http://s5.postimage.org/dz3dhcerb/CULTURA.png[/IMG]
[B]‘’Yo soy de la época en la que un disco pirata era un disco no oficial de Led Zepelin, o de los Rolling Stones, eran estos vinilos blancos, con una fotocopia…
Para mi el disco pirata fue siempre algo difícil de conseguir, un articulo de colección, una especie de joya única’’ -Andrés Calamaro.[/B][/CENTER]

Ver Online HD

Comenta con tu Facebook :

Se el primero en dejar un comentario

DEJAR UN COMENTARIO

Su Email no sera publicado.


*


hd porn video