EEUU – Un ejercito permanente [SATRip][Castellano][2010]

[center][img]http://s5.postimg.org/vqn1gswmv/4b50914b97489038a7ff7346ab4b9a66.png[/img]

[img]http://s5.postimage.org/4w7yk60fr/Sinopsis.png[/img]
[B] Durante el siglo pasado, EE UU cubrió sigilosamente la Tierra con una red de bases militares como nadie antes lo hizo. Se encuentran en todos los continentes y han influido en la vida de millones de personas, aunque siguen siendo un misterio para la mayoría.[/B]

En la actualidad hay 766 bases diseminadas por más de 100 países alrededor del globo y que dan cabida a más de 250.000 soldados, aparte del millón largo de los destinados en EE UU. Casi la totalidad de las guerras en las que ha participado EE UU a lo largo del siglo XX ha dejado tras de sí un rastro de nuevas bases militares, y no solo dentro de los límites de los países derrotados. Esta historia imparable es el punto de inicio del programa, que tratará de revelar los mecanismos, propósitos y estrategias ocultas de las bases, así como los riesgos que plantean para los países que las acogen. Viajaremos por seis países y tres continentes: Asia, América y Europa

[IMG]http://s5.postimage.org/cmeqpb2rb/RIPEADO.png[/IMG]
[quote][center][b]
Format                                   : AVI

Format/Info                              : Audio Video Interleave

File size                                : 829 MiB

Duration                                 : 53mn 2s

Overall bit rate                         : 2 187 Kbps

Writing application                      : VirtualDubMod 1.5.4.1 (build 2178/release)

Writing library                          : VirtualDubMod build 2178/release

 

Video

ID                                       : 0

Format                                   : MPEG-4 Visual

Format profile                           : Advanced [email protected]

Format settings, BVOP                    : 1

Format settings, QPel                    : No

Format settings, GMC                     : No warppoints

Format settings, Matrix                  : Custom

Codec ID                                 : XVID

Codec ID/Hint                            : XviD

Duration                                 : 53mn 2s

Bit rate                                 : 2 051 Kbps

Width                                    : 720 pixels

Height                                   : 416 pixels

Display aspect ratio                     : 1.731

Frame rate                               : 25.000 fps

Color space                              : YUV

Chroma subsampling                       : 4:2:0

Bit depth                                : 8 bits

Scan type                                : Progressive

Compression mode                         : Lossy

Bits/(Pixel*Frame)                       : 0.274

Stream size                              : 778 MiB (94%)

Writing library                          : XviD 1.2.1 (UTC 2008-12-04)

 

Audio

ID                                       : 1

Format                                   : MPEG Audio

Format version                           : Version 1

Format profile                           : Layer 3

Mode                                     : Joint stereo

Mode extension                           : MS Stereo

Codec ID                                 : 55

Codec ID/Hint                            : MP3

Duration                                 : 53mn 2s

Bit rate mode                            : Constant

Bit rate                                 : 128 Kbps

Channel(s)                               : 2 channels

Sampling rate                            : 48.0 KHz

Compression mode                         : Lossy

Stream size                              : 48.6 MiB (6%)

Alignment                                : Aligned on interleaves

Interleave, duration                     : 80 ms (2.00 video frames)

Interleave, preload duration             : 504 ms

[IMG]http://s5.postimage.org/c8kcfux83/flag_spain.png[/IMG]
[B]EN ESPAÑOL | DE ESPAÑA[/B] [/b][/center][/quote]

[img]http://s5.postimage.org/w2zgbtxvb/CAPTURAS.png[/img]
[img]http://s5.postimg.org/lhukaz8l3/33_U_3_J3_RC_s.jpg[/img]

[img]http://s5.postimage.org/yj19pofxz/DOWNLOAD.png[/img]
[url=http://ul.to/ref/7172673][img]http://uploaded.net/img/uploaded.png[/img][/url]
[B][SIZE=4]USA[COLOR=BLUE] || [/COLOR][COLOR=RED]EJERCITO PERMANENTE[/COLOR][/SIZE][/B]
[CODE]http://ul.to/psibong9
http://ul.to/x8ppb8s8[/CODE]

[IMG]http://s5.postimage.org/dz3dhcerb/CULTURA.png[/IMG]
[B]‘’Yo soy de la época en la que un disco pirata era un disco no oficial de Led Zepelin, o de los Rolling Stones, eran estos vinilos blancos, con una fotocopia…
Para mi el disco pirata fue siempre algo difícil de conseguir, un articulo de colección, una especie de joya única’’ -Andrés Calamaro.[/B][/CENTER]

Ver Online HD

Comenta con tu Facebook :

Be the first to comment

Leave a Reply

Tu dirección de correo no será publicada.


*