Dentro de; Google [2011]-[SATRip]-[NatGeo]-[Castellano]

 

Este documental es una incursión en los entresijos de Google ahora que está yendo más allá de su rentabilísimo motor de búsqueda y del negocio de la publicidad para adentrarse en el «cloud computing».

Este nuevo negocio podría ejercer un efecto gigantesco sobre la
vida diaria de los habitantes de todo el mundo. Si tiene éxito, Google
podría convertirse en el mayor almacén de información y conocimientos
que ha existido jamás.

Por eso nos preguntamos también si, en este proceso, estamos perdiendo el control de nuestra propia información y nuestra intimidad.


Format : AVI
Format/Info : Audio Video Interleave
File size : 525 MiB
Duration : 45mn 3s
Overall bit rate : 1 629 Kbps
Writing application : VirtualDubMod 1.5.4.1 (build 2178/release)
Writing library : VirtualDubMod build 2178/release

Video
ID : 0
Format : MPEG-4 Visual
Format profile : Advanced [email protected]
Format settings, BVOP : 1
Format settings, QPel : No
Format settings, GMC : No warppoints
Format settings, Matrix : Custom
Codec ID : XVID
Codec ID/Hint : XviD
Duration : 45mn 3s
Bit rate : 1 493 Kbps
Width : 704 pixels
Height : 400 pixels
Display aspect ratio : 16:9
Frame rate : 25.000 fps
Color space : YUV
Chroma subsampling : 4:2:0
Bit depth : 8 bits
Scan type : Progressive
Compression mode : Lossy
Bits/(Pixel*Frame) : 0.212
Stream size : 481 MiB (92%)
Writing library : XviD 1.2.1 (UTC 2008-12-04)

Audio
ID : 1
Format : MPEG Audio
Format version : Version 1
Format profile : Layer 3
Mode : Joint stereo
Mode extension : MS Stereo
Codec ID : 55
Codec ID/Hint : MP3
Duration : 45mn 3s
Bit rate mode : Constant
Bit rate : 128 Kbps
Channel(s) : 2 channels
Sampling rate : 48.0 KHz
Compression mode : Lossy
Stream size : 41.3 MiB (8%)
Alignment : Aligned on interleaves
Interleave, duration : 80 ms (2.00 video frames)
Interleave, preload duration : 504 ms
Writing library : LAME3.98.2


EN ESPAÑOL | DE ESPAÑA




DENTRO DE || GOOGLE

http://ul.to/qlhzauhr

 

Ver Online HD

Comenta con tu Facebook :

Be the first to comment

Leave a Reply

Tu dirección de correo no será publicada.


*