David contra Monsanto [MP4|720p]-[Castellano]-[2011]


Imagínese, una tormenta está soplando a través de su jardín sin su conocimiento y sin su consentimiento son extranjeros, las semillas genéticamente modificadas en su huerta desde hace años mantiene y apreciado. Unos días más tarde, los representantes de un grupo multi-a su casa, su solicitud de reembolso y verduras en la misma queja en la cantidad de 20.000,00 euros para el uso ilícito de las semillas patentadas genéticamente modificadas.

Esta pequeña historia no es una utopía, sino una amarga verdad en el mundo. También es la verdad de Percy y Louise Schmeiser en Canadá – ganador del Premio Nobel Alternativo – la lucha desde 1996 contra la compañía ahora-químicos y semillas de Monsanto. Alrededor de tres cuartas partes de la cosecha mundial de plantas genéticamente modificadas se encuentran ahora en los laboratorios de Monsanto, un grupo de EE.UU., las invenciones sombrías, como el DDT, los PCBs y el Agente Naranja, llama a su propia. Para recuperar el dominio del campo a la mesa, nada asusta a Monsanto de nuevo al frente. Así que el granjero había Troy Rush, Runyon David y Marc Loiselle aprendido, así como miles de otros agricultores en todo el mundo.


Format : MPEG-4
Format profile : Base Media / Version 2
Codec ID : mp42
File size : 1.05 GiB
Duration : 1h 6mn
Overall bit rate mode : Variable
Overall bit rate : 2 271 Kbps
Encoded date : UTC 2012-11-29 13:42:38
Tagged date : UTC 2012-11-29 13:42:38
gsst : 0
gstd : 3968126
gssd : B4A7D0D25HH1355752223442458
gshh : r18—sn-1gi7zn7l.c.youtube.com

Video
ID : 1
Format : AVC
Format/Info : Advanced Video Codec
Format profile : [email protected]
Format settings, CABAC : Yes
Format settings, ReFrames : 1 frame
Codec ID : avc1
Codec ID/Info : Advanced Video Coding
Duration : 1h 6mn
Bit rate : 2 077 Kbps
Maximum bit rate : 10.1 Mbps
Width : 1 280 pixels
Height : 720 pixels
Display aspect ratio : 16:9
Frame rate mode : Constant
Frame rate : 25.000 fps
Color space : YUV
Chroma subsampling : 4:2:0
Bit depth : 8 bits
Scan type : Progressive
Bits/(Pixel*Frame) : 0.090
Stream size : 982 MiB (91%)
Tagged date : UTC 2012-11-29 13:44:07

Audio
ID : 2
Format : AAC
Format/Info : Advanced Audio Codec
Format profile : LC
Codec ID : 40
Duration : 1h 6mn
Bit rate mode : Variable
Bit rate : 192 Kbps
Maximum bit rate : 201 Kbps
Channel(s) : 2 channels
Channel positions : Front: L R
Sampling rate : 44.1 KHz
Compression mode : Lossy
Stream size : 90.8 MiB (8%)
Title : IsoMedia File Produced by Google, 5-11-2011
Encoded date : UTC 2012-11-29 13:43:43
Tagged date : UTC 2012-11-29 13:44:07



EN ESPAÑOL | DE ESPAÑA




DAVID || MONSANTO

Código:
http://ul.to/bxak8yt0
http://ul.to/2ltc6whf
http://ul.to/oxqq9z99
Ver Online HD

Comenta con tu Facebook :

Be the first to comment

Leave a Reply

Tu dirección de correo no será publicada.


*