Contrabandistas de la droga [SATRip]-[Castellano]-[2011]

Cada año, millones de toneladas de estupefacientes cruzan nuestras fronteras. A pesar del esfuerzo titánico de las autoridades competentes, sólo se confisca una pequeña parte del material de contrabando. Hoy, los cárteles están llevando el juego al límite: minisubmarinos, súper-túneles, silenciosos ultraligeros e incluso rudimentarias catapultas son algunos de sus métodos.

Este impactante documental muestra la lucha de Estados Unidos contra el narcotráfico, así como los increíbles métodos usados por los cárteles de la droga para burlar la vigilancia de la DEA (Administración de Cumplimiento de Leyes sobre las Drogas de Estados Unidos).

Cita:

Format : AVI
Format/Info : Audio Video Interleave
File size : 1.08 GiB
Duration : 44mn 4s
Overall bit rate : 3 516 Kbps
Writing application : VirtualDubMod 1.5.4.1 (build 2178/release) VirtualDubMod build 2178/release

Video
ID : 0
Format : MPEG-4 Visual
Format profile : Advanced [email protected]
Format settings, BVOP : 1
Format settings, QPel : No
Format settings, GMC : No warppoints
Format settings, Matrix : Default (MPEG)
Muxing mode : Packed bitstream
Codec ID : XVID
Codec ID/Hint : XviD
Duration : 44mn 4s
Bit rate : 3 310 Kbps
Width : 1 360 pixels
Height : 768 pixels
Display aspect ratio : 16:9
Frame rate : 50.000 fps
Color space : YUV
Chroma subsampling : 4:2:0
Bit depth : 8 bits
Scan type : Progressive
Compression mode : Lossy
Bits/(Pixel*Frame) : 0.063
Stream size : 1.02 GiB (94%)
Writing library : XviD 64

Audio
ID : 1
Format : MPEG Audio
Format version : Version 1
Format profile : Layer 3
Mode : Joint stereo
Mode extension : MS Stereo
Codec ID : 55
Codec ID/Hint : MP3
Duration : 44mn 4s
Bit rate mode : Constant
Bit rate : 192 Kbps
Channel(s) : 2 channels
Sampling rate : 44.1 KHz
Compression mode : Lossy
Stream size : 60.5 MiB (5%)
Alignment : Split accross interleaves
Interleave, duration : 40 ms (2.00 video frames)
Interleave, preload duration : 500 ms
Writing library : LAME3.98r
Encoding settings : -m j -V 4 -q 2 -lowpass 18.6 -b 192


EN ESPAÑOL | DE ESPAÑA




CONTRABANDISTAS DE || LA DROGA

http://ul.to/onh97q3f
http://ul.to/famcng5w
http://ul.to/byvmjnxk

Ver Online HD

Comenta con tu Facebook :

Be the first to comment

Leave a Reply

Tu dirección de correo no será publicada.


*