Combustión (2013) [HDRIp][Castellano AC3 5.1][Thriller]

Título original Combustión
Año 2013
País España
Director Daniel Calparsoro
Guión Carlos Montero, Jaime Vaca, Daniel Calparsoro
Música Carlos Jean
Fotografía Daniel Aranyó
Reparto Álex González, Adriana Ugarte, Alberto Ammann, María Castro, Marta Nieto, Luis Zahera, Christian Mulas, Juan Pablo Shuck
Productora Antena 3 Films / Canal+ España / La Sexta / Zeta Audiovisual
Género Acción | Coches / Automovilismo

Está a punto de casarse con Julia, la dueña de una importante joyería que ha heredado de sus padres. Durante la fiesta en la que anuncian su compromiso, Mikel conoce a Ari, una de las camareras del catering. La atracción que surge entre ambos hará que Mikel se interese por el mundo de Ari, las carreras ilegales de coches. Se enamora de ella hasta el punto de abandonar a Julia, sin saber siquiera cuáles son los planes de Ari y su novio.

Código:
General
Complete name                            : /home/nuevecoo/public_html/files/Combustion.HDRip.avi
Format                                   : AVI
Format/Info                              : Audio Video Interleave
File size                                : 1.64 GiB
Duration                                 : 1h 43mn
Overall bit rate                         : 2 270 Kbps
Writing application                      : VirtualDubMod 1.5.10.2 (build 2540/release)
Writing library                          : VirtualDubMod build 2540/release

Video
ID                                       : 0
Format                                   : MPEG-4 Visual
Format profile                           : Advanced [email protected]
Format settings, BVOP                    : 2
Format settings, QPel                    : No
Format settings, GMC                     : No warppoints
Format settings, Matrix                  : Default (MPEG)
Codec ID                                 : XVID
Codec ID/Hint                            : XviD
Duration                                 : 1h 43mn
Bit rate                                 : 1 813 Kbps
Width                                    : 720 pixels
Height                                   : 304 pixels
Display aspect ratio                     : 2.35:1
Frame rate                               : 24.000 fps
Color space                              : YUV
Chroma subsampling                       : 4:2:0
Bit depth                                : 8 bits
Scan type                                : Progressive
Compression mode                         : Lossy
Bits/(Pixel*Frame)                       : 0.345
Stream size                              : 1.31 GiB (80%)
Writing library                          : XviD 1.2.1 (UTC 2008-12-04)

Audio
ID                                       : 1
Format                                   : AC-3
Format/Info                              : Audio Coding 3
Mode extension                           : CM (complete main)
Codec ID                                 : 2000
Duration                                 : 1h 43mn
Bit rate mode                            : Constant
Bit rate                                 : 448 Kbps
Channel(s)                               : 6 channels
Channel positions                        : Front: L C R, Side: L R, LFE
Sampling rate                            : 48.0 KHz
Bit depth                                : 16 bits
Compression mode                         : Lossy
Stream size                              : 332 MiB (20%)
Alignment                                : Split accross interleaves
Interleave, duration                     : 42 ms (1.00 video frame)
Interleave, preload duration             : 500 ms

http://notepad.cc/share/1J83wllaP3

Ver Online HD

Comenta con tu Facebook :

Be the first to comment

Leave a Reply

Tu dirección de correo no será publicada.


*