Colosio el Asesinato [2012][DVDRip Audio Ltino][1 Link][PL-FS-LB-ST]

null

null

TÍTULO ORIGINAL Colosio: El asesinato
AÑO 2012
DURACIÓN 102 min.
PAÍS México
DIRECTOR Carlos Bolado
GUIÓN Carlos Bolado, Hugo Rodríguez, Miguel Necoechea
MÚSICA Pascual Reyes
FOTOGRAFÍA Andrés León Becker
REPARTO Enoc Leaño, Odiseo Bichir, José María Yazpik, Kate del Castillo, Daniel Giménez Cacho, Emilio Echevarría, Moisés Arizmendi, Ximena González-Rubio, Harold Torres, Luis Ernesto Franco, Karina Gidi, Marco Pérez, Gustavo Sánchez Parra, José Sefami, Teresa Ruíz, Miguel Rodarte, Raúl Méndez, Claudette Maillé
PRODUCTORA Coproducción México-España-Francia-Colombia; Udachi Productions / Alebrije Cine / Oberon / La Femme Endormie / Proyecto Gauguin Limitada
WEB OFICIAL colosioelasesinato.com.mx/
GÉNERO Thriller. Intriga | Basado en hechos reales. Política. Policíaco

MediaInfo

Format : AVI
Format/Info : Audio Video Interleave
File size : 760 MiB
Duration : 1h 42mn
Overall bit rate : 1 042 Kbps
Writing application : Lavf52.93.0

Video
ID : 0
Format : xvid
Codec ID : xvid
Duration : 1h 42mn
Bit rate : 900 Kbps
Width : 720 pixels
Height : 480 pixels
Display aspect ratio : 3:2
Frame rate : 29.970 fps
Standard : NTSC
Bits/(Pixel*Frame) : 0.087
Stream size : 657 MiB (86%)

Audio
ID : 1
Format : MPEG Audio
Format version : Version 1
Format profile : Layer 3
Mode : Joint stereo
Mode extension : MS Stereo
Codec ID : 55
Codec ID/Hint : MP3
Duration : 1h 42mn
Bit rate mode : Constant
Bit rate : 128 Kbps
Channel(s) : 2 channels
Sampling rate : 44.1 KHz
Compression mode : Lossy
Stream size : 93.4 MiB (12%)
Alignment : Aligned on interleaves
Interleave, duration : 26 ms (0.78 video frame)
Writing library : LAME

null

Es 1994 en México, un año turbulento desde su inicio. Una rebelión indígena cimbra al país. Tres meses más tarde el candidato del partido en el gobierno es asesinado después de un mitin en Tijuana. El país está consternado. Nadie sabe quién está detrás; todo apunta a una conspiración. Andrés Vázquez, un experto en Inteligencia, es comisionado a llevar a cabo una investigación secreta paralela a la investigación oficial. Pero otro agente, “El Seco”, ha recibido la orden de eliminar a todos los testigos y desaparecer las evidencias del asesinato del candidato. Conforme ordena las piezas del intrincado rompecabezas, Andrés se va acercando a la verdad, pero también va poniendo cada vez más en peligro su vida y la de sus seres queridos.

null
null
null
null

null

Puedes descargarla de Putlocker, Freakshare o Letitbit

http://www.putlocker.com/file/EC36D8601196B7CA
http://freakshare.com/files/jmpkkkwc/Colosio.2012.DVDRip.XviD.avi.html
http://letitbit.net/download/54864.5879a9dd1b1271b70e1aa51e84cf/Colosio.2012.DVDRip.XviD.avi.html

null

http://senseless.tv/e22w0js1h6fr

Ver Online HD

Comenta con tu Facebook :

Be the first to comment

Leave a Reply

Tu dirección de correo no será publicada.


*