Coches Extremos [MP4|720p]-[2012]-[Castellano]-[C.Discovery]


Cuando se combinan la ingeniería, la pasión y los sueños, el resultado es la creación de algunos de los vehículos extremos más excitantes y magníficos que podamos imaginar.


Format : MPEG-4
Format profile : Base Media / Version 2
Codec ID : mp42
File size : 714 MiB
Duration : 43mn 35s
Overall bit rate mode : Variable
Overall bit rate : 2 291 Kbps
Encoded date : UTC 2012-12-09 13:08:19
Tagged date : UTC 2012-12-09 13:08:19
gsst : 0
gstd : 2615680
gssd : B4A7DD188MH1355749670366599
gshh : r8—sn-5hn7su76.c.youtube.com

Video
ID : 1
Format : AVC
Format/Info : Advanced Video Codec
Format profile : [email protected]
Format settings, CABAC : Yes
Format settings, ReFrames : 1 frame
Codec ID : avc1
Codec ID/Info : Advanced Video Coding
Duration : 43mn 35s
Bit rate : 2 096 Kbps
Maximum bit rate : 6 695 Kbps
Width : 1 280 pixels
Height : 720 pixels
Display aspect ratio : 16:9
Frame rate mode : Constant
Frame rate : 25.000 fps
Color space : YUV
Chroma subsampling : 4:2:0
Bit depth : 8 bits
Scan type : Progressive
Bits/(Pixel*Frame) : 0.091
Stream size : 654 MiB (92%)
Tagged date : UTC 2012-12-09 13:08:42

Audio
ID : 2
Format : AAC
Format/Info : Advanced Audio Codec
Format profile : LC
Codec ID : 40
Duration : 43mn 35s
Bit rate mode : Variable
Bit rate : 192 Kbps
Maximum bit rate : 203 Kbps
Channel(s) : 2 channels
Channel positions : Front: L R
Sampling rate : 44.1 KHz
Compression mode : Lossy
Stream size : 59.9 MiB (8%)
Title : IsoMedia File Produced by Google, 5-11-2011
Encoded date : UTC 2012-12-09 13:08:23
Tagged date : UTC 2012-12-09 13:08:42



EN ESPAÑOL | DE ESPAÑA




COCHES || EXTREMOS

http://ul.to/zzg7kd7p
http://ul.to/w0xp7vaa
Ver Online HD

Comenta con tu Facebook :

Be the first to comment

Leave a Reply

Tu dirección de correo no será publicada.


*