Chernobyl; toda la verdad [A3TV]-[DVBRip]-[2011]-[Castellano]

[center][imG]http://s5.postimage.org/3uiygdh9z/chernobyl_tuare.png[/img]

[img]http://s5.postimage.org/4w7yk60fr/Sinopsis.png[/img]
[B]A 25 años de la catástrofe ecológica, los recuerdos de los sobrevivientes  se rescatan en este documental a través del cual más allá de las creencias se conoce la VERDAD de aquel 26 de Abril de 1968 en Chernóbil, Ucrania.[/B]

[IMG]http://s5.postimage.org/cmeqpb2rb/RIPEADO.png[/IMG]
[quote][center][b]
Format                                   : AVI

Format/Info                              : Audio Video Interleave

File size                                : 560 MiB

Duration                                 : 49mn 9s

Overall bit rate                         : 1 593 Kbps

Writing application                      : VirtualDubMod 1.5.4.1 (build 2178/release)

Writing library                          : VirtualDubMod build 2178/release

 

Video

ID                                       : 0

Format                                   : MPEG-4 Visual

Format profile                           : Advanced [email protected]

Format settings, BVOP                    : 1

Format settings, QPel                    : No

Format settings, GMC                     : No warppoints

Format settings, Matrix                  : Custom

Codec ID                                 : XVID

Codec ID/Hint                            : XviD

Duration                                 : 49mn 9s

Bit rate                                 : 1 458 Kbps

Width                                    : 704 pixels

Height                                   : 528 pixels

Display aspect ratio                     : 4:3

Frame rate                               : 25.000 fps

Color space                              : YUV

Chroma subsampling                       : 4:2:0

Bit depth                                : 8 bits

Scan type                                : Progressive

Compression mode                         : Lossy

Bits/(Pixel*Frame)                       : 0.157

Stream size                              : 512 MiB (92%)

Writing library                          : XviD 1.2.1 (UTC 2008-12-04)

 

Audio

ID                                       : 1

Format                                   : MPEG Audio

Format version                           : Version 1

Format profile                           : Layer 3

Mode                                     : Joint stereo

Mode extension                           : MS Stereo

Codec ID                                 : 55

Codec ID/Hint                            : MP3

Duration                                 : 49mn 9s

Bit rate mode                            : Constant

Bit rate                                 : 128 Kbps

Channel(s)                               : 2 channels

Sampling rate                            : 48.0 KHz

Compression mode                         : Lossy

Stream size                              : 45.0 MiB (8%)

Alignment                                : Aligned on interleaves

Interleave, duration                     : 80 ms (2.00 video frames)

Interleave, preload duration             : 504 ms

Writing library                          : LAME3.98.2

[IMG]http://s5.postimage.org/c8kcfux83/flag_spain.png[/IMG]
[B]EN ESPAÑOL | DE ESPAÑA[/B] [/b][/center][/quote]

[img]http://s5.postimage.org/w2zgbtxvb/CAPTURAS.png[/img]
[img]http://s5.postimage.org/5l1zhuyt3/ch3r_T0_DAL4_V3_RDAD_s.jpg[/img]

[img]http://s5.postimage.org/yj19pofxz/DOWNLOAD.png[/img]
[url=http://ul.to/ref/7172673][img]http://uploaded.net/img/uploaded.png[/img][/url]
[B][SIZE=4]CHERNOBYL[COLOR=BLUE] || [/COLOR][COLOR=RED]TODA LA VERDAD[/COLOR][/SIZE][/B]
[CODE]http://ul.to/nld3vnfx[/CODE]

[IMG]http://s5.postimage.org/dz3dhcerb/CULTURA.png[/IMG]
[B]‘’Yo soy de la época en la que un disco pirata era un disco no oficial de Led Zepelin, o de los Rolling Stones, eran estos vinilos blancos, con una fotocopia…
Para mi el disco pirata fue siempre algo difícil de conseguir, un articulo de colección, una especie de joya única’’ -Andrés Calamaro.[/B]
[/CENTER]

 

Ver Online HD

Comenta con tu Facebook :

Be the first to comment

Leave a Reply

Tu dirección de correo no será publicada.


*