Chernobyl; la ciudad olvidada [C.Historia]-[SATRip]-[Castellano]

[center][imG]http://s5.postimage.org/mx2c3asaf/1348214753844.png[/img]

[img]http://s5.postimage.org/4w7yk60fr/Sinopsis.png[/img]
[B]Tras la II Guerra Mundial, la historia de la ciencia se escribió en la ciudad rusa de Obninsk. Aquí se puso en marcha la primera planta de energía nuclear del mundo. Stalin había hecho realidad su sueño del “átomo rojo”. Eran los primeros días de la Guerra Fría y el líder quería demostrar la superioridad del comunismo al resto del mundo, además de ganar la carrera internacional en el campo de la investigación nuclear con fines no militares.[/B]

Hoy Obninsk es todavía una ciudad de la ciencia que lucha frente a las nuevas condiciones de la economía de mercado. El primer reactor nuclear del mundo está a punto de ser demolido y sólo unos pocos habitantes, como Anatoly Voropaev, de 69 años, luchan obstinadamente para asegurar que no caiga en el olvido. En Obninsk también fue diseñado el reactor de Chernobyl, catástrofe que todavía hoy pesa sobre la ciudad.

Este programa muestra los momentos de gloria y fracaso en la historia de Obninsk a través de filmaciones inéditas y testimonios de testigos. El documental dibuja un retrato amplio y minucioso de una ciudad en proceso de cambio y de sus vecinos, que buscan su pasado, su presente y su futuro.

[IMG]http://s5.postimage.org/cmeqpb2rb/RIPEADO.png[/IMG]
[quote][center][b]
Format                                   : AVI

Format/Info                              : Audio Video Interleave

File size                                : 506 MiB

Duration                                 : 44mn 5s

Overall bit rate                         : 1 605 Kbps

Writing application                      : VirtualDubMod 1.5.4.1 (build 2178/release)

Writing library                          : VirtualDubMod build 2178/release

 

Video

ID                                       : 0

Format                                   : MPEG-4 Visual

Format profile                           : Advanced [email protected]

Format settings, BVOP                    : No

Format settings, QPel                    : No

Format settings, GMC                     : No warppoints

Format settings, Matrix                  : Custom

Codec ID                                 : XVID

Codec ID/Hint                            : XviD

Duration                                 : 44mn 5s

Bit rate                                 : 1 469 Kbps

Width                                    : 704 pixels

Height                                   : 416 pixels

Display aspect ratio                     : 1.692

Frame rate                               : 25.000 fps

Color space                              : YUV

Chroma subsampling                       : 4:2:0

Bit depth                                : 8 bits

Scan type                                : Progressive

Compression mode                         : Lossy

Bits/(Pixel*Frame)                       : 0.201

Stream size                              : 463 MiB (92%)

Writing library                          : XviD 1.2.1 (UTC 2008-12-04)

 

Audio

ID                                       : 1

Format                                   : MPEG Audio

Format version                           : Version 1

Format profile                           : Layer 3

Mode                                     : Joint stereo

Mode extension                           : MS Stereo

Codec ID                                 : 55

Codec ID/Hint                            : MP3

Duration                                 : 44mn 5s

Bit rate mode                            : Constant

Bit rate                                 : 128 Kbps

Channel(s)                               : 2 channels

Sampling rate                            : 48.0 KHz

Compression mode                         : Lossy

Stream size                              : 40.4 MiB (8%)

Alignment                                : Aligned on interleaves

Interleave, duration                     : 80 ms (2.00 video frames)

Interleave, preload duration             : 504 ms

Writing library                          : LAME3.98.2

[IMG]http://s5.postimage.org/c8kcfux83/flag_spain.png[/IMG]
[B]EN ESPAÑOL | DE ESPAÑA[/B] [/b][/center][/quote]

[img]http://s5.postimage.org/w2zgbtxvb/CAPTURAS.png[/img]
[img]http://s5.postimage.org/k1p8wfoaf/ch3r_LACl_UD4_D_0_LVl_DADA_s.jpg[/img]

[img]http://s5.postimage.org/yj19pofxz/DOWNLOAD.png[/img]
[url=http://ul.to/ref/7172673][img]http://uploaded.net/img/uploaded.png[/img][/url]
[B][SIZE=4]CHERNOBYL[COLOR=BLUE] || [/COLOR][COLOR=RED]LA CIUDAD OLVIDADA[/COLOR][/SIZE][/B]
[CODE]http://ul.to/w16g5vcq
http://ul.to/rcj7vmzf[/CODE]

[IMG]http://s5.postimage.org/dz3dhcerb/CULTURA.png[/IMG]
[B]‘’Yo soy de la época en la que un disco pirata era un disco no oficial de Led Zepelin, o de los Rolling Stones, eran estos vinilos blancos, con una fotocopia…
Para mi el disco pirata fue siempre algo difícil de conseguir, un articulo de colección, una especie de joya única’’ -Andrés Calamaro.[/B]
[/CENTER]

Ver Online HD

Comenta con tu Facebook :

Be the first to comment

Leave a Reply

Tu dirección de correo no será publicada.


*