Camarón de la Isla [MP4|360p]-[Castellano]-[2005]


Documental sobre Camarón producido en Barcelona. De Camarón siempre se ha difundido por las partes interesadas en el negocio del mal llamado nuevo flamenco, periodistas distinguidos incluidos, su parte más comercial.

La realidad es que siempre fue un extraordinario aficionado, al mismo nivel que cantaor, antes que nadie iba a escuchar asiduamente a los verdaderos artistas, de los que crean y hacen ARTE, como fueron los casos de Santiago Donday o el Tío Mollimo entre muchos otros.

Interesantísimas las declaraciones de Ricardo Pachón productor en su época más comercial, sobre las imposiciones de su casa discográfica. Camarón rara vez actuó con grupo fuera de un plató de TV.

De hecho sus mejores discos están recogidos en directo con el único acompañamiento de la guitarra flamenca y el jaleo del público.


Format : MPEG-4
Format profile : Base Media / Version 2
Codec ID : mp42
File size : 628 MiB
Duration : 50mn 17s
Overall bit rate mode : Variable
Overall bit rate : 1 745 Kbps
Encoded date : UTC 2012-09-26 18:47:54
Tagged date : UTC 2012-09-26 18:47:54

Video
ID : 1
Format : AVC
Format/Info : Advanced Video Codec
Format profile : [email protected]
Format settings, CABAC : Yes
Format settings, ReFrames : 1 frame
Codec ID : avc1
Codec ID/Info : Advanced Video Coding
Duration : 50mn 17s
Bit rate : 1 551 Kbps
Maximum bit rate : 4 903 Kbps
Width : 1 280 pixels
Height : 720 pixels
Display aspect ratio : 16:9
Frame rate mode : Constant
Frame rate : 25.000 fps
Color space : YUV
Chroma subsampling : 4:2:0
Bit depth : 8 bits
Scan type : Progressive
Bits/(Pixel*Frame) : 0.067
Stream size : 558 MiB (89%)
Tagged date : UTC 2012-09-26 18:50:32

Audio
ID : 2
Format : AAC
Format/Info : Advanced Audio Codec
Format profile : LC
Codec ID : 40
Duration : 50mn 17s
Bit rate mode : Variable
Bit rate : 192 Kbps
Maximum bit rate : 201 Kbps
Channel(s) : 2 channels
Channel positions : Front: L R
Sampling rate : 44.1 KHz
Compression mode : Lossy
Stream size : 69.1 MiB (11%)
Encoded date : UTC 2012-09-26 18:49:42
Tagged date : UTC 2012-09-26 18:50:32



EN ESPAÑOL | DE ESPAÑA




CAMARON || DE LA ISLA

http://ul.to/fnp71ph9
http://ul.to/r6dts4dn


‘’Yo soy de la época en la que un disco pirata era un disco no oficial de Led Zepelin, o de los Rolling Stones, eran estos vinilos blancos, con una fotocopia…
Para mi el disco pirata fue siempre algo difícil de conseguir, un articulo de colección, una especie de joya única’’ -Andrés Calamaro.

Ver Online HD

Comenta con tu Facebook :

Be the first to comment

Leave a Reply

Tu dirección de correo no será publicada.


*