Bucarest, la memoria perdida [RTVE]-[SATRip]-[2012]-[Castellano]

[center][imG]http://s5.postimage.org/nkbcn21tj/BU1.png[/img]

[img]http://s5.postimage.org/4w7yk60fr/Sinopsis.png[/img]
[B]Bucarest es un documental de 80 minutos sobre la memoria. Narra la
búsqueda personal que hace Albert (un periodista nacido en el exilio en 1962)
por recuperar sus propias raíces, enmarcadas entre un doble exilio. Su padre,
el político español Jordi Solé Tura, que acabaría convirtiéndose en figura clave
durante la Transición Española, fue obligado a exiliarse por su militancia
antifranquista a finales de los años 50.[/B]

Ahora, tras una vida repleta de
experiencias políticas y personales apasionantes, Jordi ha iniciado un nuevo
exilio interior, esta vez sin posibilidad de retorno: lucha contra el Alzheimer. Su
memoria se pierde día a día. Este documental pretende recuperar los
recuerdos de unas vidas atípicas, en que se mezclan personajes históricos y
episodios poco conocidos de la lucha contra el franquismo y de la Guerra Fría.

[IMG]http://s5.postimage.org/cmeqpb2rb/RIPEADO.png[/IMG]
[quote][center][b]
Format : AVI
Format/Info : Audio Video Interleave
File size : 750 MiB
Duration : 1h 20mn
Overall bit rate : 1 308 Kbps
Writing application : VirtualDubMod 1.5.4.1 (build 2178/release)
Writing library : VirtualDubMod build 2178/release

Video
ID : 0
Format : MPEG-4 Visual
Format profile : Advanced [email protected]
Format settings, BVOP : 1
Format settings, QPel : No
Format settings, GMC : No warppoints
Format settings, Matrix : Custom
Codec ID : XVID
Codec ID/Hint : XviD
Duration : 1h 20mn
Bit rate : 1 173 Kbps
Width : 640 pixels
Height : 384 pixels
Display aspect ratio : 1.667
Frame rate : 25.000 fps
Color space : YUV
Chroma subsampling : 4:2:0
Bit depth : 8 bits
Scan type : Progressive
Compression mode : Lossy
Bits/(Pixel*Frame) : 0.191
Stream size : 672 MiB (90%)
Writing library : XviD 1.2.1 (UTC 2008-12-04)

Audio
ID : 1
Format : MPEG Audio
Format version : Version 1
Format profile : Layer 3
Mode : Joint stereo
Mode extension : MS Stereo
Codec ID : 55
Codec ID/Hint : MP3
Duration : 1h 20mn
Bit rate mode : Constant
Bit rate : 128 Kbps
Channel(s) : 2 channels
Sampling rate : 48.0 KHz
Compression mode : Lossy
Stream size : 73.4 MiB (10%)
Alignment : Aligned on interleaves
Interleave, duration : 80 ms (2.00 video frames)
Interleave, preload duration : 504 ms

[IMG]http://s5.postimage.org/c8kcfux83/flag_spain.png[/IMG]
[B]EN ESPAÑOL | DE ESPAÑA[/B] [/b][/center][/quote]

[img]http://s5.postimage.org/w2zgbtxvb/CAPTURAS.png[/img]
[img]http://s5.postimage.org/st6dkxk8n/BUC4_R35_T_L_M3_M0_RIAP3_RDl_DA_s.png[/img]

[img]http://s5.postimage.org/yj19pofxz/DOWNLOAD.png[/img]
[url=http://ul.to/ref/7172673][img]http://uploaded.net/img/uploaded.png[/img][/url]
[B][SIZE=4]BUCAREST[COLOR=BLUE] || [/COLOR][COLOR=RED]LA MEMORIA PERDIDA[/COLOR][/SIZE][/B]
[CODE]http://ul.to/vetbjr7f
http://ul.to/tbxalbiu[/CODE]

[IMG]http://s5.postimage.org/dz3dhcerb/CULTURA.png[/IMG]
[B]‘’Yo soy de la época en la que un disco pirata era un disco no oficial de Led Zepelin, o de los Rolling Stones, eran estos vinilos blancos, con una fotocopia…
Para mi el disco pirata fue siempre algo difícil de conseguir, un articulo de colección, una especie de joya única’’ -Andrés Calamaro.[/B][/CENTER]

Ver Online HD

Comenta con tu Facebook :

Be the first to comment

Leave a Reply

Tu dirección de correo no será publicada.


*