Baja Rapid (Terror en Antartida)Whiteout

Título original: Witheout
Dirección: Dominic Sena
País: USA
Año: 2009
Duración: 01:32:38
Género: Action | Crime | Drama | Mystery | Thriller
Interpretación
Screenplay: Jon Hoeber, Erich Hoeber, Chad Hayes, Carey Hayes
Graphic novel: Greg Rucka, Steve Lieber
Guión: Jon Hoeber
Producción: Joel Silver, Susan Downey. David Gambino
Música: John Frizzell
Fotografía: Christopher Soos

Carrie Stetko (Kate Beckinsale), miembro de los U.S. Marshal, investiga el primer asesinato ocurrido en la Antártida justo cuando el sol esta a punto de ponerse durante seis meses. Ella debe atrapar al asesino antes de que abandone el hielo, o quedarse atrapada con él durante seis meses.

General
Format : AVI
Format/Info : Audio Video Interleave
File size : 700 MiB
Duration : 1h 40mn
Overall bit rate : 972 Kbps
Writing application : VirtualDubMod 1.5.10.2 (build 2540/release)
Writing library : VirtualDub build 31953/release

Video
ID : 0
Format : MPEG-4 Visual
Format profile : [email protected]
Format settings, BVOP : Yes
Format settings, QPel : No
Format settings, GMC : No warppoints
Format settings, Matrix : Default (H.263)
Codec ID : XVID
Codec ID/Hint : XviD
Duration : 1h 40mn
Bit rate : 835 Kbps
Width : 576 pixels
Height : 240 pixels
Display aspect ratio : 2.40:1
Frame rate : 23.976 fps
Resolution : 24 bits
Colorimetry : 4:2:0
Scan type : Progressive
Bits/(Pixel*Frame) : 0.252
Stream size : 601 MiB (86%)
Writing library : XviD 1.2.1 (UTC 2008-12-04)

Audio
ID : 1
Format : MPEG Audio
Format version : Version 1
Format profile : Layer 3
Codec ID : 55
Codec ID/Hint : MP3
Duration : 1h 40mn
Bit rate mode : Constant
Bit rate : 128 Kbps
Channel(s) : 2 channels
Sampling rate : 44.1 KHz
Resolution : 16 bits
Stream size : 92.2 MiB (13%)
Alignment : Split accross interleaves
Interleave, duration : 42 ms (1.00 video frame)
Interleave, preload duration : 500 ms
Writing library : LAME3.98.2

http://hotfile.com/dl/24766365/85b8ddd/Terror.Antar.DVDrip.serxi.part1.rar.html

http://hotfile.com/dl/24766504/8440293/Terror.Antar.DVDrip.serxi.part2.rar.html

http://hotfile.com/dl/24767202/cab560b/Terror.Antar.DVDrip.serxi.part3.rar.html

http://hotfile.com/dl/24767340/6ada49f/Terror.Antar.DVDrip.serxi.part4.rar.html

http://hotfile.com/dl/24767566/b2b0ecc/Terror.Antar.DVDrip.serxi.part5.rar.html

http://hotfile.com/dl/24767816/a39f8b2/Terror.Antar.DVDrip.serxi.part6.rar.html

http://hotfile.com/dl/24768263/1af4c0d/Terror.Antar.DVDrip.serxi.part7.rar.html

http://hotfile.com/dl/24768358/72c7d63/Terror.Antar.DVDrip.serxi.part8.rar.html

Ver Online HD

Comenta con tu Facebook :

Be the first to comment

Leave a Reply

Tu dirección de correo no será publicada.


*