Asesinos de Gorilas [NatGeo]-[MP4]-[720p]-[Castellano]-[2008]


En julio de 2007, una terrible notícia procedente del este del Congo horroriza al mundo entero: una familia de cuatro gorilas de montaña ha sido asesinada a quemarropa, triste consecuencia del feroz enfrentamiento entre humanos y gorilas por los valiosos recursos de la selva.


Format : MPEG-4
Format profile : Base Media / Version 2
Codec ID : mp42
File size : 779 MiB
Duration : 47mn 40s
Overall bit rate mode : Variable
Overall bit rate : 2 283 Kbps

Video
ID : 1
Format : AVC
Format/Info : Advanced Video Codec
Format profile : [email protected]
Format settings, CABAC : Yes
Format settings, ReFrames : 1 frame
Codec ID : avc1
Codec ID/Info : Advanced Video Coding
Duration : 47mn 40s
Bit rate : 2 088 Kbps
Maximum bit rate : 6 956 Kbps
Width : 1 276 pixels
Height : 720 pixels
Display aspect ratio : 16:9
Frame rate mode : Constant
Frame rate : 25.000 fps
Color space : YUV
Chroma subsampling : 4:2:0
Bit depth : 8 bits
Scan type : Progressive
Bits/(Pixel*Frame) : 0.091
Stream size : 712 MiB (91%)
Tagged date : UTC 2013-01-10 10:18:11

Audio
ID : 2
Format : AAC
Format/Info : Advanced Audio Codec
Format profile : LC
Codec ID : 40
Duration : 47mn 40s
Bit rate mode : Variable
Bit rate : 192 Kbps
Maximum bit rate : 201 Kbps
Channel(s) : 2 channels
Channel positions : Front: L R
Sampling rate : 44.1 KHz
Compression mode : Lossy
Stream size : 65.5 MiB (8%)
Encoded date : UTC 2013-01-10 10:17:35
Tagged date : UTC 2013-01-10 10:18:11



EN ESPAÑOL | DE ESPAÑA




ASESINOS DE || GORILAS

http://ul.to/s6xuepte
http://ul.to/iyuejptl


‘’Yo soy de la época en la que un disco pirata era un disco no oficial de Led Zepelin, o de los Rolling Stones, eran estos vinilos blancos, con una fotocopia…
Para mi el disco pirata fue siempre algo difícil de conseguir, un articulo de colección, una especie de joya única’’ -Andrés Calamaro.

Ver Online HD

Comenta con tu Facebook :

Be the first to comment

Leave a Reply

Tu dirección de correo no será publicada.


*