Asesinos Canibales – Vampiros [D.Max][MP4][480p][2012][Castellano]

[center][img]http://s5.postimg.org/xxra4q1x3/Vampire_Beauty_522277.png[/img]

[img]http://s5.postimage.org/4w7yk60fr/Sinopsis.png[/img]
[B]Canibales que cruzan lineas prohibidas.
Se dejan llevar por delirios y deseos

¿En que lugar encajan sus crimenes dentro de los mas malvados?[/B]

[IMG]http://s5.postimage.org/cmeqpb2rb/RIPEADO.png[/IMG]
[quote][center][b]
Format                                   : MPEG-4

Format profile                           : Base Media / Version 2

Codec ID                                 : mp42

File size                                : 403 MiB

Duration                                 : 44mn 37s

Overall bit rate mode                    : Variable

Overall bit rate                         : 1 261 Kbps

Encoded date                             : UTC 2013-01-20 21:55:35

Tagged date                              : UTC 2013-01-20 21:55:35

 

Video

ID                                       : 1

Format                                   : AVC

Format/Info                              : Advanced Video Codec

Format profile                           : [email protected]

Format settings, CABAC                   : Yes

Format settings, ReFrames                : 1 frame

Codec ID                                 : avc1

Codec ID/Info                            : Advanced Video Coding

Duration                                 : 44mn 37s

Bit rate                                 : 1 067 Kbps

Maximum bit rate                         : 2 977 Kbps

Width                                    : 1 280 pixels

Height                                   : 720 pixels

Display aspect ratio                     : 16:9

Frame rate mode                          : Constant

Frame rate                               : 15.000 fps

Color space                              : YUV

Chroma subsampling                       : 4:2:0

Bit depth                                : 8 bits

Scan type                                : Progressive

Bits/(Pixel*Frame)                       : 0.077

Stream size                              : 341 MiB (85%)

Tagged date                              : UTC 2013-01-20 21:55:37

 

Audio

ID                                       : 2

Format                                   : AAC

Format/Info                              : Advanced Audio Codec

Format profile                           : LC

Codec ID                                 : 40

Duration                                 : 44mn 37s

Bit rate mode                            : Variable

Bit rate                                 : 192 Kbps

Maximum bit rate                         : 204 Kbps

Channel(s)                               : 2 channels

Channel positions                        : Front: L R

Sampling rate                            : 44.1 KHz

Compression mode                         : Lossy

Stream size                              : 61.3 MiB (15%)

Title                                    : IsoMedia File Produced by Google, 5-11-2011

Encoded date                             : UTC 2013-01-20 21:55:36

Tagged date                              : UTC 2013-01-20 21:55:37
[img]http://s5.postimage.org/su0a7shpv/MP4_Archivo.png[/img]
[IMG]http://s5.postimage.org/c8kcfux83/flag_spain.png[/IMG]
[B]EN ESPAÑOL | DE ESPAÑA[/B] [/b][/center][/quote]

[img]http://s5.postimage.org/w2zgbtxvb/CAPTURAS.png[/img]
[img]http://s5.postimg.org/g8zjd3q5z/A535_IN0_S_CANIBAL3_S_VMPl_R05_s.jpg[/img]

[img]http://s5.postimage.org/yj19pofxz/DOWNLOAD.png[/img]
[url=http://ul.to/ref/7172673][img]http://uploaded.net/img/uploaded.png[/img][/url]
[B][SIZE=4]ASESINOS CANIBALES[COLOR=BLUE] || [/COLOR][COLOR=RED]VAMPIROS[/COLOR][/SIZE][/B]
[CODE]http://ul.to/28lajncr[/CODE]

[IMG]http://s5.postimage.org/dz3dhcerb/CULTURA.png[/IMG]
[B]‘’Yo soy de la época en la que un disco pirata era un disco no oficial de Led Zepelin, o de los Rolling Stones, eran estos vinilos blancos, con una fotocopia…
Para mi el disco pirata fue siempre algo difícil de conseguir, un articulo de colección, una especie de joya única’’ -Andrés Calamaro.[/B][/CENTER]

Ver Online HD

Comenta con tu Facebook :

Be the first to comment

Leave a Reply

Tu dirección de correo no será publicada.


*