Archivos Oficiales; Ovnis [MP4|720p]-[Castellano]-[C.Historia]-[2011]

 


Existe todo un archivo histórico no oficial sobre extraños e inexplicables avistamientos en los cielos. Las supuestas pruebas incluyen desde dibujos de la época prehistórica hasta el famoso caso Roswell.

La proliferación de herramientas de vídeo y fotografía en la era moderna ha provocado que el número de informes acerca estos hechos -con sus correspondientes pruebas visuales- no haya hecho más que aumentar. El 95% de los avistamientos de ovnis son falsos, ya sea por identificaciones erróneas o por simples engaños, pero, el 5% restante, no se puede desechar.

Basado en el libro de reciente publicación “Ovnis: las declaraciones oficiales de generales, pilotos y funcionarios del Gobierno”, este especial analiza los avistamientos que han defendido numerosas fuentes acreditadas de EE UU, como pilotos comerciales y de la Fuerza Aérea, funcionarios de la Administración Federal de Aviación, investigadores, generales del Ejército y funcionarios de la NASA.

También se examinan una variedad de documentos probatorios: fotos, vídeos, registros de radar y de audio.


Format : MPEG-4

Format profile : Base Media / Version 2

Codec ID : mp42

File size : 968 MiB

Duration : 1h 35mn

Overall bit rate mode : Variable

Overall bit rate : 1 417 Kbps

Encoded date : UTC 2012-08-24 23:52:14

Tagged date : UTC 2012-08-24 23:52:14

gsst : 0

gstd : 5731078

gssd : B4A7D0D62MH1355828645906587

gshh : r5—sn-1gi7zn7z.c.youtube.com

Video

ID : 1

Format : AVC

Format/Info : Advanced Video Codec

Format profile : [email protected]

Format settings, CABAC : Yes

Format settings, ReFrames : 1 frame

Codec ID : avc1

Codec ID/Info : Advanced Video Coding

Duration : 1h 35mn

Bit rate : 1 222 Kbps

Maximum bit rate : 3 795 Kbps

Width : 960 pixels

Height : 720 pixels

Display aspect ratio : 4:3

Frame rate mode : Constant

Frame rate : 30.000 fps

Color space : YUV

Chroma subsampling : 4:2:0

Bit depth : 8 bits

Scan type : Progressive

Bits/(Pixel*Frame) : 0.059

Stream size : 835 MiB (86%)

Tagged date : UTC 2012-08-24 23:53:51

Audio

ID : 2

Format : AAC

Format/Info : Advanced Audio Codec

Format profile : LC

Codec ID : 40

Duration : 1h 35mn

Bit rate mode : Variable

Bit rate : 192 Kbps

Maximum bit rate : 203 Kbps

Channel(s) : 2 channels

Channel positions : Front: L R

Sampling rate : 44.1 KHz

Compression mode : Lossy

Stream size : 131 MiB (14%)

Title : IsoMedia File Produced by Google, 5-11-2011

Encoded date : UTC 2012-08-24 23:53:06
Tagged date : UTC 2012-08-24 23:53:51



EN ESPAÑOL | DE ESPAÑA




ARCHIVOS OFICIALES || OVNIS


 

Ver Online HD

Comenta con tu Facebook :

Be the first to comment

Leave a Reply

Tu dirección de correo no será publicada.


*