Apuestas Deportivas, Mafia y Corrupción (2012)-[C.Odisea]-[SATRip]-[Castellano]

[center][imG]http://s5.postimage.org/95v25ax87/APUMAFICORRU.png[/img]

[img]http://s5.postimage.org/4w7yk60fr/Sinopsis.png[/img]
[b]De Hong Kong a Londres pasando por Milán y Zurich, este trabajo les ofrece el resultado de una investigación internacional que se acerca a un fenómeno social en auge que pone en peligro las reglas y el espíritu del deporte: las apuestas por Internet. Con unos ingresos estimados de unos 500 millones de euros en 2011, las casas de apuestas ya mueven más dinero que el tráfico de drogas.[/b]

Por poner un ejemplo, en la final de la Champions de 2011 se movieron unos mil millones de euros. Sobre la base de un sistema que es similar a la bolsa de valores, la esperanza de dinero fácil sin moverse del sillón es un aliciente al que muchos sucumben.

Sin embargo, para que unos pocos ganen otros muchos tienen que perder. Por si no fuera suficiente, el crimen organizado ha encontrado la forma de blanqueo de dinero más sencilla, eficiente y rentable que jamás se haya inventado. Ante las sospechas de amaños de partidos, las principales organizaciones internacionales, los gobiernos y las principales federaciones deportivas, han comenzado una lucha conjunta que ya ha empezado a dar los primeros frutos, con los primeros juicios legales en Bélgica y Alemania, y muchos deportistas de nivel internacional implicados.

[IMG]http://s5.postimage.org/cmeqpb2rb/RIPEADO.png[/IMG]
[quote][center][b]Format                                   : AVI

Format/Info                              : Audio Video Interleave

File size                                : 724 MiB

Duration                                 : 51mn 56s

Overall bit rate                         : 1 948 Kbps

Writing application                      : SpanishDub 1.5

Writing library                          : VirtualDub build 14328/release

 

Video

ID                                       : 0

Format                                   : MPEG-4 Visual

Format profile                           : Advanced [email protected]

Format settings, BVOP                    : No

Format settings, QPel                    : No

Format settings, GMC                     : No warppoints

Format settings, Matrix                  : Custom

Codec ID                                 : XVID

Codec ID/Hint                            : XviD

Duration                                 : 51mn 56s

Bit rate                                 : 1 810 Kbps

Width                                    : 720 pixels

Height                                   : 416 pixels

Display aspect ratio                     : 16:9

Frame rate                               : 25.000 fps

Color space                              : YUV

Chroma subsampling                       : 4:2:0

Bit depth                                : 8 bits

Scan type                                : Progressive

Compression mode                         : Lossy

Bits/(Pixel*Frame)                       : 0.242

Stream size                              : 672 MiB (93%)

Writing library                          : XviD 1.2.1 (UTC 2008-12-04)

 

Audio

ID                                       : 1

Format                                   : MPEG Audio

Format version                           : Version 1

Format profile                           : Layer 3

Mode                                     : Joint stereo

Mode extension                           : MS Stereo

Codec ID                                 : 55

Codec ID/Hint                            : MP3

Duration                                 : 51mn 56s

Bit rate mode                            : Constant

Bit rate                                 : 128 Kbps

Channel(s)                               : 2 channels

Sampling rate                            : 48.0 KHz

Compression mode                         : Lossy

Stream size                              : 47.6 MiB (7%)

Alignment                                : Aligned on interleaves

Interleave, duration                     : 40 ms (1.00 video frame)

Interleave, preload duration             : 480 ms

Writing library                          : LAME3.98.2
[img]http://uploaded.net/img/uploaded.png[/img]
PARTES DEL ARCHIVO: 2 [/b][/center][/quote]

[img]http://s5.postimage.org/w2zgbtxvb/CAPTURAS.png[/img]
[img]http://s5.postimage.org/gzvnqp513/APU35_TA5_MAFl_A_D3_P0_RT3_S_s.jpg[/img]

[img]http://s5.postimage.org/yj19pofxz/DOWNLOAD.png[/img]
[IMG]http://s5.postimage.org/za0fep3g3/uploaded.png[/IMG]
[B][SIZE=5]APUESTAS DEPORTIVAS, MAFIA Y CORRUPCIÓN[/SIZE][/B]
[CODE]http://ul.to/y27nl6dv
http://ul.to/9nani3ll[/CODE][/CENTER]

Ver Online HD

Comenta con tu Facebook :

Be the first to comment

Leave a Reply

Tu dirección de correo no será publicada.


*