Anonymous – La historia de un Activismo [MP4][480p][Castellano][2012][Ing+Sub]

[center][img]http://s5.postimg.org/5nfo13juf/Anonymous_for_social_activist.png[/img]

[img]http://s5.postimage.org/4w7yk60fr/Sinopsis.png[/img]
[B] Anonymous comenzó a operar en 2008 y alcanzó notoriedad mundial en los últimos años, especialmente durante el caso Wikileaks y el escándalo por la detención de Julian Assange. [/B]

Se trata de un grupo de activistas cibernéticos que realiza acciones en defensa de la libertad de expresión e información. Actúa como una verdadera “guerrilla cibernética”, dando golpes virtuales cargados de significado y, día a día, convoca más adeptos en todo el planeta. “We Are Legion: The Story of the Hacktivists” es un documental que se sumerge dentro del grupo para conocer el pensamiento de los más radicales que simbolizan la desobediencia civil en la era digital. El film explora su nacimiento, sus raíces históricas en grupos como Cult of the Dead Cow y Electronic Disturbance Theater. Una de sus características es que usan máscaras de Guy Fawkes, las mismas del film “V de Vendetta”.

[IMG]http://s5.postimage.org/cmeqpb2rb/RIPEADO.png[/IMG]
[quote][center][b]
Format                                   : MPEG-4
Format profile                           : Base Media / Version 2
Codec ID                                 : mp42
File size                                : 262 MiB
Duration                                 : 1h 14mn
Overall bit rate mode                    : Variable
Overall bit rate                         : 491 Kbps

Video
ID                                       : 1
Format                                   : AVC
Format/Info                              : Advanced Video Codec
Format profile                           : [email protected]
Format settings, CABAC                   : No
Format settings, ReFrames                : 1 frame
Codec ID                                 : avc1
Codec ID/Info                            : Advanced Video Coding
Duration                                 : 1h 14mn
Bit rate                                 : 392 Kbps
Maximum bit rate                         : 2 034 Kbps
Width                                    : 640 pixels
Height                                   : 312 pixels
Display aspect ratio                     : 2.051
Frame rate mode                          : Constant
Frame rate                               : 29.970 fps
Color space                              : YUV
Chroma subsampling                       : 4:2:0
Bit depth                                : 8 bits
Scan type                                : Progressive
Bits/(Pixel*Frame)                       : 0.066
Stream size                              : 209 MiB (80%)
Tagged date                              : UTC 2013-01-22 00:42:32

Audio
ID                                       : 2
Format                                   : AAC
Format/Info                              : Advanced Audio Codec
Format profile                           : LC
Codec ID                                 : 40
Duration                                 : 1h 14mn
Bit rate mode                            : Variable
Bit rate                                 : 96.0 Kbps
Maximum bit rate                         : 105 Kbps
Channel(s)                               : 2 channels
Channel positions                        : Front: L R
Sampling rate                            : 44.1 KHz
Compression mode                         : Lossy
Stream size                              : 51.1 MiB (20%)
Title                                    : IsoMedia File Produced by Google, 5-11-2011
Encoded date                             : UTC 2013-01-22 00:42:31
Tagged date                              : UTC 2013-01-22 00:42:32

[img]http://s5.postimage.org/su0a7shpv/MP4_Archivo.png[/img]
[IMG]http://s5.postimg.org/t4c4dlusz/Flag_USA.png[/IMG]
[B]EN INGLES + SUBTITULOS[/B] [/b][/center][/quote]

[img]http://s5.postimage.org/w2zgbtxvb/CAPTURAS.png[/img]
[img]http://s5.postimg.org/i3gz8l2k7/AN0_NYMU5_Hl_ST0_RY_AKTIVIST_s.jpg[/img]

[img]http://s5.postimage.org/yj19pofxz/DOWNLOAD.png[/img]
[url=http://ul.to/ref/7172673][img]http://uploaded.net/img/uploaded.png[/img][/url]
[B][SIZE=4]ANONYMOUS[COLOR=BLUE] || [/COLOR][COLOR=RED]HISTORIA DE UN ACTIVISMO[/COLOR][/SIZE][/B]
[CODE]http://ul.to/xsxmz4o5[/CODE]

[IMG]http://s5.postimage.org/dz3dhcerb/CULTURA.png[/IMG]
[B]‘’Yo soy de la época en la que un disco pirata era un disco no oficial de Led Zepelin, o de los Rolling Stones, eran estos vinilos blancos, con una fotocopia…
Para mi el disco pirata fue siempre algo difícil de conseguir, un articulo de colección, una especie de joya única’’ -Andrés Calamaro.[/B][/CENTER]

Ver Online HD

Comenta con tu Facebook :

Be the first to comment

Leave a Reply

Tu dirección de correo no será publicada.


*