Alto Karabaj; entre la guerra y en la paz (URS)-[2007]-[SATRip]-[Castellano]

[center][imG]http://s5.postimage.org/4qt811v3r/10272261141.png[/img]

[img]http://s5.postimage.org/4w7yk60fr/Sinopsis.png[/img]
[B]Los historiadores citan la guerra de Alto Karabaj (1989-1994) como una de las primeras señales del derrumbamiento de la Unión Soviética.[/B]

Vardan Hovhannisyan, periodista en primera línea de combate y antiguo prisionero de guerra, vivió entre los soldados, médicos, enfermeras, habitantes y niños que se vieron inmersos en el conflicto y captó sus pensamientos e impresiones, así como las últimas palabras que dijeron a sus familias. Años después, Vardan Hovhannisyan regresa a Alto Karabaj en un intento de llegar a comprender las consecuencias de una guerra devastadora y de aprender una lección de paz por parte de los supervivientes…

[IMG]http://s5.postimage.org/s6b56eeuv/Nagorno_Karabakh_Occupation_Map.png[/IMG]

[IMG]http://s5.postimage.org/cmeqpb2rb/RIPEADO.png[/IMG]
[quote][center][b]
Format                                   : AVI
Format/Info                              : Audio Video Interleave
File size                                : 650 MiB
Duration                                 : 1h 8mn
Overall bit rate                         : 1 329 Kbps
Writing application                      : VirtualDubMod 1.5.4.1 (build 2178/release)
Writing library                          : VirtualDubMod build 2178/release

Video
ID                                       : 0
Format                                   : MPEG-4 Visual
Format profile                           : Advanced [email protected]
Format settings, BVOP                    : 1
Format settings, QPel                    : No
Format settings, GMC                     : No warppoints
Format settings, Matrix                  : Custom
Codec ID                                 : XVID
Codec ID/Hint                            : XviD
Duration                                 : 1h 8mn
Bit rate                                 : 1 194 Kbps
Width                                    : 688 pixels
Height                                   : 432 pixels
Display aspect ratio                     : 1.593
Frame rate                               : 25.000 fps
Color space                              : YUV
Chroma subsampling                       : 4:2:0
Bit depth                                : 8 bits
Scan type                                : Progressive
Compression mode                         : Lossy
Bits/(Pixel*Frame)                       : 0.161
Stream size                              : 584 MiB (90%)
Writing library                          : XviD 1.2.1 (UTC 2008-12-04)

Audio
ID                                       : 1
Format                                   : MPEG Audio
Format version                           : Version 1
Format profile                           : Layer 3
Mode                                     : Joint stereo
Mode extension                           : MS Stereo
Codec ID                                 : 55
Codec ID/Hint                            : MP3
Duration                                 : 1h 8mn
Bit rate mode                            : Constant
Bit rate                                 : 128 Kbps
Channel(s)                               : 2 channels
Sampling rate                            : 48.0 KHz
Compression mode                         : Lossy
Stream size                              : 62.6 MiB (10%)
Alignment                                : Aligned on interleaves
Interleave, duration                     : 80 ms (2.00 video frames)
Interleave, preload duration             : 504 ms
Writing library                          : LAME3.98.2

[IMG]http://s5.postimage.org/c8kcfux83/flag_spain.png[/IMG]
[B]EN ESPAÑOL | DE ESPAÑA[/B] [/b][/center][/quote]

[img]http://s5.postimage.org/w2zgbtxvb/CAPTURAS.png[/img]
[img]http://s5.postimage.org/7wdtr9dpz/ALT0_K4_R4_BAJ_3_NGU3_RRAy_PA5_s.jpg[/img]

[img]http://s5.postimage.org/yj19pofxz/DOWNLOAD.png[/img]
[url=http://ul.to/ref/7172673][img]http://uploaded.net/img/uploaded.png[/img][/url]
[B][SIZE=4]ALTO KARABAJ[COLOR=BLUE] || [/COLOR][COLOR=RED]ENTRE LA GUERRA Y LA PAZ[/COLOR][/SIZE][/B]
[CODE]http://ul.to/h86fd4t6
http://ul.to/ghljotvc[/CODE]

[IMG]http://s5.postimage.org/dz3dhcerb/CULTURA.png[/IMG]
[B]‘’Yo soy de la época en la que un disco pirata era un disco no oficial de Led Zepelin, o de los Rolling Stones, eran estos vinilos blancos, con una fotocopia…
Para mi el disco pirata fue siempre algo difícil de conseguir, un articulo de colección, una especie de joya única’’ -Andrés Calamaro.[/B]
[/CENTER]

 

Ver Online HD

Comenta con tu Facebook :

Be the first to comment

Leave a Reply

Tu dirección de correo no será publicada.


*