Alienigenas Ancestrales (Temporada 4)-[10/10]-[DVB-S|720p]-[Castellano]

[center][IMG]http://s5.postimage.org/ropn1ekzb/image.png[/IMG]

[img]http://s5.postimage.org/4w7yk60fr/Sinopsis.png[/img]
[B]Alienígenas ancestrales (Ancient Aliens en inglés) es una serie de televisión estadounidense que se estrenó el 20 de abril de 2010, en el canal History. Producido por Prometheus Entertainment, el programa presenta las hipótesis de los antiguos astronautas y propone que los textos históricos, la arqueología y leyendas contienen pruebas de que en el pasado, el ser humano tuvo contacto con los extraterrestres.[/B]

– El especial que dio origen a la serie salió al aire el 8 de marzo de 2009 –

La serie en general examina 75 millones años de la “evidencia alienígena” más increíble que ha llegado a la Tierra, desde la edad de los dinosaurios, al antiguo Egipto, hacia el cielo sobre el desierto estadounidense en la actualidad, con capítulos como “Alienígenas en el viejo oeste”

El productor ejecutivo es Kevin Burns, quien también dirigió y escribió el episodio piloto. Giorgio A. Tsoukalos sirve como consultor de producción y apareció en la pantalla del piloto. Erich von Däniken apareció en el episodio piloto, y ufólogo C. Scott Littleton sirvió como un consultor experto para el show hasta su muerte en 2010.

En toda la serie colaboran personajes como: George Noory, Barry Downing, Jonathan Young y David Hatcher Childress entre otros.

El programa tenia 1.676M de espectadores a finales de octubre de 2010, 2.034M a mediados de diciembre (para el episodio “Estructuras inexplicable”) y en finales de enero de 2011, tenia 1.309M de espectadores.

[imG]http://s5.postimage.org/6dn100wjb/porta_DA.jpg[/img]

[IMG]http://s5.postimage.org/cmeqpb2rb/RIPEADO.png[/IMG]
[quote][center][b]
Format : AVI
Format/Info : Audio Video Interleave
File size : 982 MiB
Duration : 44mn 3s
Overall bit rate : 3 117 Kbps
Writing application : VirtualDubMod 1.5.10.3 | www.virtualdub-fr.org || (build 2550/release)
Writing library : VirtualDubMod build 2550/release

Video
ID : 0
Format : MPEG-4 Visual
Format profile : Advanced [email protected]
Format settings, BVOP : 2
Format settings, QPel : No
Format settings, GMC : No warppoints
Format settings, Matrix : Default (H.263)
Muxing mode : Packed bitstream
Codec ID : XVID
Codec ID/Hint : XviD
Duration : 44mn 3s
Bit rate : 2 916 Kbps
Width : 1 280 pixels
Height : 720 pixels
Display aspect ratio : 16:9
Frame rate : 25.000 fps
Color space : YUV
Chroma subsampling : 4:2:0
Bit depth : 8 bits
Scan type : Progressive
Compression mode : Lossy
Bits/(Pixel*Frame) : 0.127
Stream size : 919 MiB (94%)
Writing library : XviD 64

Audio
ID : 1
Format : MPEG Audio
Format version : Version 1
Format profile : Layer 3
Mode : Joint stereo
Mode extension : MS Stereo
Codec ID : 55
Codec ID/Hint : MP3
Duration : 44mn 2s
Bit rate mode : Constant
Bit rate : 192 Kbps
Channel(s) : 2 channels
Sampling rate : 48.0 KHz
Compression mode : Lossy
Stream size : 60.5 MiB (6%)
Alignment : Aligned on interleaves
Interleave, duration : 40 ms (1.00 video frame)
Interleave, preload duration : 504 ms

[img]http://s5.postimage.org/ow10v4a0j/Canal_46_fic_Logo_historia.png[/img]
[IMG]http://s5.postimage.org/c8kcfux83/flag_spain.png[/IMG]
[B]EN ESPAÑOL | DE ESPAÑA[/B] [/b][/center][/quote]

[img]http://s5.postimage.org/w2zgbtxvb/CAPTURAS.png[/img]
[COLOR=RED][B]CAPTURAS EN MINIATURA PARA QUE NO MOLESTEN A LA VISTA, SI LAS QUERÉIS AMPLIAR PULSAD ENCIMA DE ELLAS[/B][/COLOR]

[url=http://postimage.org/image/c4i9avaur/][img]http://s5.postimage.org/c4i9avaur/ALl3_N5_ANC35_TRAL_410_3_LPUM4_PUNQU_s.jpg[/img][/url] [url=http://postimage.org/image/6udajkqlv/][img]http://s5.postimage.org/6udajkqlv/ALl3_N5_ANC35_TRAL_409_ALl3_N5y_Dl_N05_s.jpg[/img][/url] [url=http://postimage.org/image/5glno9rcj/][img]http://s5.postimage.org/5glno9rcj/ALl3_N5_ANC35_TRAL_408_Vl_AJ3_R05_DL_Tl3_MP0_s.jpg[/img][/url] [url=http://postimage.org/image/tydrc5twz/][img]http://s5.postimage.org/tydrc5twz/ALl3_N5_ANC35_TRAL_407_Bl_GF00_T_s.jpg[/img][/url]

[url=http://postimage.org/image/6lfptndtf/][img]http://s5.postimage.org/6lfptndtf/ALl3_N5_ANC35_TRAL_406_C0_N5_Pl_RACl_I0_N_D_D4_Vl_NCl_s.jpg[/img][/url] [url=http://postimage.org/image/aj2zj20mr/][img]http://s5.postimage.org/aj2zj20mr/ALl3_N5_ANC35_TRAL_405_NA5_A_CON3_CTI0_N_s.jpg[/img][/url] [url=http://postimage.org/image/fj0fr069f/][img]http://s5.postimage.org/fj0fr069f/ALl3_N5_ANC35_TRAL_404_m3gad3sa5tr3s_ALi3n5_s.jpg[/img][/url] [url=http://postimage.org/image/jtf3mlbcj/][img]http://s5.postimage.org/jtf3mlbcj/ALl3_N5_ANC35_TRAL_403_l05gris3s_s.jpg[/img][/url]

[url=http://postimage.org/image/sd32y392r/][img]http://s5.postimage.org/sd32y392r/ALl3_N5_ANC35_TRAL_402_pr0f3cia5finmund0_s.jpg[/img][/url] [url=http://postimage.org/image/sed0riawj/][img]http://s5.postimage.org/sed0riawj/ALl3_N5_ANC35_TRAL_401_lac0nspiraci0nmaia_s.jpg[/img][/url]

[img]http://s5.postimage.org/yj19pofxz/DOWNLOAD.png[/img]
[url=http://ul.to/ref/7172673][img]http://uploaded.net/img/uploaded.png[/img][/url]

[B][SIZE=4]ALIENIGENAS ANCESTRALES
[COLOR=RED] 4×01[/COLOR]
¤ LA CONSPIRACIÓN MAYA ¤[/SIZE][/B]
[CODE]http://ul.to/ab67veqj
http://ul.to/50451yzi
http://ul.to/nq3lohjj[/CODE]

[B][SIZE=4]ALIENIGENAS ANCESTRALES
[COLOR=RED] 4×02[/COLOR]
¤ LAS PROFECÍAS APOCALÍPTICAS ¤[/SIZE][/B]
[CODE]http://ul.to/j7hfg4un
http://ul.to/dherte37
http://ul.to/zl4w4rg9[/CODE]

[B][SIZE=4]ALIENIGENAS ANCESTRALES
[COLOR=RED] 4×03[/COLOR]
¤ LOS GRISES ¤[/SIZE][/B]
[CODE]http://ul.to/np72ezd6
http://ul.to/ljuda67f
http://ul.to/epxlmxtu[/CODE]

[B][SIZE=4]ALIENIGENAS ANCESTRALES
[COLOR=RED] 4×04[/COLOR]
¤ ALIENÍGENAS Y MEGA-DESASTRES ¤[/SIZE][/B]
[CODE]http://ul.to/jlcgxxj4
http://ul.to/kikczkdy
http://ul.to/xe74j9tk[/CODE]

[B][SIZE=4]ALIENIGENAS ANCESTRALES
[COLOR=RED] 4×05[/COLOR]
¤ LA CONEXIÓN DE LA NASA ¤[/SIZE][/B]
[CODE]http://ul.to/wbthksxo
http://ul.to/fv3e7obq[/CODE]

[B][SIZE=4]ALIENIGENAS ANCESTRALES
[COLOR=RED] 4×06[/COLOR]
¤ EL MISTERIO DEL PUMA PUNKU ¤[/SIZE][/B]
[CODE]http://ul.to/k3r5eskf
http://ul.to/4h7wsao7[/CODE]

[B][SIZE=4]ALIENIGENAS ANCESTRALES
[COLOR=RED] 4×07[/COLOR]
¤ EL BIGFOOT ¤[/SIZE][/B]
[CODE]http://ul.to/uzyi50ta
http://ul.to/2ooqwwte
http://ul.to/y9vp8cjb[/CODE]

[B][SIZE=4]ALIENIGENAS ANCESTRALES
[COLOR=RED] 4×08[/COLOR]
¤ LA CONSPIRACIÓN DE DA’VINCI ¤[/SIZE][/B]
[CODE]http://ul.to/ttu0iehg
http://ul.to/z5df9zyu
http://ul.to/m0skeq6l[/CODE]

[B][SIZE=4]ALIENIGENAS ANCESTRALES
[COLOR=RED] 4×09[/COLOR]
¤ LOS VIAJEROS DEL TIEMPO ¤[/SIZE][/B]
[CODE]http://ul.to/hnnb91yo
http://ul.to/ga9re0jg[/CODE]

[B][SIZE=4]ALIENIGENAS ANCESTRALES
[COLOR=RED] 4×10[/COLOR]
¤ ALIENÍGENAS Y DINOSAURIOS ¤[/SIZE][/B]
[CODE]http://ul.to/kuaq8trj
http://ul.to/ryeju29j[/CODE]

[IMG]http://s5.postimage.org/dz3dhcerb/CULTURA.png[/IMG]
[B]‘’Yo soy de la época en la que un disco pirata era un disco no oficial de Led Zepelin, o de los Rolling Stones, eran estos vinilos blancos, con una fotocopia…
Para mi el disco pirata fue siempre algo difícil de conseguir, un articulo de colección, una especie de joya única’’ -Andrés Calamaro.[/B][/CENTER]

Ver Online HD

Comenta con tu Facebook :

Be the first to comment

Leave a Reply

Tu dirección de correo no será publicada.


*