Albert Einstein [MP4|720p]-[Castellano]-[2010]-[C.Historia]


Este documental cuenta la increíble historia personal y profesional de Albert Einstein de una forma única: enmarcada entre dos eclipses solares ocurridos entre 1914 y 1919.

Aunque el más importante trabajo de Einstein ocurrió en 1905 cuando pensó en su teoría de la relatividad, nadie le creía y era víctima de burlas, además de tener problemas para encontrar un trabajo prestigioso.

Entonces, en 1911, se le ocurriría una forma de probar su teoría a través de un eclipse solar…


Format : MPEG-4
Format profile : Base Media / Version 2
Codec ID : mp42
File size : 1.12 GiB
Duration : 1h 29mn
Overall bit rate mode : Variable
Overall bit rate : 1 784 Kbps
Encoded date : UTC 2012-11-02 04:35:33
Tagged date : UTC 2012-11-02 04:35:33

Video
ID : 1
Format : AVC
Format/Info : Advanced Video Codec
Format profile : [email protected]
Format settings, CABAC : Yes
Format settings, ReFrames : 1 frame
Format settings, GOP : M=1, N=60
Codec ID : avc1
Codec ID/Info : Advanced Video Coding
Duration : 1h 29mn
Bit rate : 1 589 Kbps
Maximum bit rate : 9 051 Kbps
Width : 1 280 pixels
Height : 720 pixels
Display aspect ratio : 16:9
Frame rate mode : Constant
Frame rate : 24.000 fps
Color space : YUV
Chroma subsampling : 4:2:0
Bit depth : 8 bits
Scan type : Progressive
Bits/(Pixel*Frame) : 0.072
Stream size : 1 022 MiB (89%)
Tagged date : UTC 2012-11-02 04:36:27

Audio
ID : 2
Format : AAC
Format/Info : Advanced Audio Codec
Format profile : LC
Codec ID : 40
Duration : 1h 29mn
Bit rate mode : Variable
Bit rate : 192 Kbps
Maximum bit rate : 202 Kbps
Channel(s) : 2 channels
Channel positions : Front: L R
Sampling rate : 44.1 KHz
Compression mode : Lossy
Stream size : 124 MiB (11%)
Encoded date : UTC 2012-11-02 04:35:47
Tagged date : UTC 2012-11-02 04:36:27



EN ESPAÑOL | DE ESPAÑA




ALBERT || EINSTEIN

http://ul.to/81dnzjg9

http://ul.to/fyes3g3w

http://ul.to/da5j2kka


‘’Yo soy de la época en la que un disco pirata era un disco no oficial de Led Zepelin, o de los Rolling Stones, eran estos vinilos blancos, con una fotocopia…
Para mi el disco pirata fue siempre algo difícil de conseguir, un articulo de colección, una especie de joya única’’ -Andrés Calamaro.

Ver Online HD

Comenta con tu Facebook :

Be the first to comment

Leave a Reply

Tu dirección de correo no será publicada.


*