El misterio del Faraón de Plata [HDTV|720p]-[NatGeo]-[2010]-[Castellano]


Psusennes I fue enterrado en un ataúd de plata maciza rodeado de tesoros comparables a los de Tutankamon. La tumba de Psusennes es la única tumba de todas las tumbas de faraones que se han encontrado en la que no habían entrado antes los ladrones de tumbas.


Format : Matroska
Format version : Version 2
File size : 1.46 GiB
Duration : 45mn 2s
Overall bit rate : 4 644 Kbps
Writing application : HandBrake 0.9.5
Writing library : libmkv 0.6.4.1
Video
ID : 1
Format : AVC
Format/Info : Advanced Video Codec
Format profile : [email protected]
Format settings, CABAC : Yes
Format settings, ReFrames : 4 frames
Codec ID : V_MPEG4/ISO/AVC
Duration : 45mn 2s
Bit rate : 4 500 Kbps
Width : 1 280 pixels
Height : 720 pixels
Display aspect ratio : 16:9
Frame rate mode : Variable
Frame rate : 25.000 fps
Color space : YUV
Chroma subsampling : 4:2:0
Bit depth : 8 bits
Scan type : Progressive
Bits/(Pixel*Frame) : 0.195
Stream size : 1.38 GiB (95%)
Writing library : x264 core 112
Language : English
Color primaries : BT.709-5, BT.1361, IEC 61966-2-4, SMPTE RP177
Transfer characteristics : BT.709-5, BT.1361
Matrix coefficients : BT.709-5, BT.1361, IEC 61966-2-4 709, SMPTE RP177

Audio
ID : 2
Format : AC-3
Format/Info : Audio Coding 3
Mode extension : CM (complete main)
Codec ID : A_AC3
Duration : 45mn 2s
Bit rate mode : Constant
Bit rate : 160 Kbps
Channel(s) : 2 channels
Channel positions : Front: L R
Sampling rate : 48.0 KHz
Bit depth : 16 bits
Compression mode : Lossy
Stream size : 51.6 MiB (3%)
Language : Spanish



EN ESPAÑOL | DE ESPAÑA




EL MISTERIO DEL || FARAON DE PLATA

Código:
http://ul.to/77milhe4
http://ul.to/cs6z49f2
http://ul.to/hk9456mg
http://ul.to/pbxgfckp
Ver Online HD

Comenta con tu Facebook :

Be the first to comment

Leave a Reply

Tu dirección de correo no será publicada.


*