Senna; toda una vida [DVDRip]-[Castellano]-[2011]


Largometraje documental ganador de dos premios BAFTA (mejor largo documental y mejor edición) y premiado por el público en el Festival de Cine Independiente de Sundance. “Senna”

Recorre la vida del legendario piloto Ayrton Senna desde la temporada de su debut, en 1984, hasta su prematura muerte una década después- es mucho más que una película para apasionados de la Fórmula 1.

El filme cuenta una historia excepcional, dejando las técnicas habituales del documental para adoptar una visión más cinematográfica.


Format : AVI
Format/Info : Audio Video Interleave
File size : 1.22 GiB
Duration : 1h 41mn
Overall bit rate : 1 725 Kbps
Writing application : VirtualDubMod 1.5.4.1 (build 2178/release)
Writing library : VirtualDubMod build 2178/release
Video
ID : 0
Format : MPEG-4 Visual
Format profile : Advanced [email protected]
Format settings, BVOP : 1
Format settings, QPel : No
Format settings, GMC : No warppoints
Format settings, Matrix : Custom
Codec ID : XVID
Codec ID/Hint : XviD
Duration : 1h 41mn
Bit rate : 1 590 Kbps
Width : 720 pixels
Height : 400 pixels
Display aspect ratio : 16:9
Frame rate : 25.000 fps
Color space : YUV
Chroma subsampling : 4:2:0
Bit depth : 8 bits
Scan type : Progressive
Compression mode : Lossy
Bits/(Pixel*Frame) : 0.221
Stream size : 1.12 GiB (92%)
Writing library : XviD 1.2.1 (UTC 2008-12-04)

Audio
ID : 1
Format : MPEG Audio
Format version : Version 1
Format profile : Layer 3
Mode : Joint stereo
Codec ID : 55
Codec ID/Hint : MP3
Duration : 1h 41mn
Bit rate mode : Constant
Bit rate : 128 Kbps
Channel(s) : 2 channels
Sampling rate : 48.0 KHz
Compression mode : Lossy
Stream size : 92.7 MiB (7%)
Alignment : Aligned on interleaves
Interleave, duration : 80 ms (2.00 video frames)
Interleave, preload duration : 504 ms
Writing library : LAME3.98.2


EN ESPAÑOL | DE ESPAÑA




SENNA || EL LARGOMETRAJE

http://ul.to/gglt2dh9
http://ul.to/umuh86e7
http://ul.to/0q94xgei
Ver Online HD

Comenta con tu Facebook :

Be the first to comment

Leave a Reply

Tu dirección de correo no será publicada.


*