2012 – El Comienzo, de una Nueva Era [SATRip]-[2012]-[Castellano]


21 de diciembre de 2012. La proximidad de esta fecha, marcada por los mayas hace unos mil cuatrocientos años, se ha convertido en los últimos tiempos en fuente incesante de curiosidad y debate.

Algunos creen que se acerca el mismísimo fin del mundo, pero otros auguran una época de bonanza. ¿Pero cómo se ha llegado a esta conclusión y en una fecha tan concreta? Para buscar respuestas, visitaremos las enigmáticas ruinas de Copán en Honduras; en Alemania, nos acercaremos al famoso Códice de Dresde, uno de los tres manuscritos auténticos que quedan sobre los antiguos mayas y el primer libro conocido sobre las Américas; en las tierras altas de Guatemala, levantaremos el velo del misterioso mundo del chamanismo de los mayas; y en México, examinaremos la Estela 6 de

Tortuguero, la única inscripción conocida que se refiere a la consabida fecha del 21 de diciembre.

Con la ayuda de prestigiosos arqueólogos y eruditos, este documenta recorre medio mundo para tratar de arrojar luz sobre la fecha del fin del mundo vaticinada por los Mayas.


Format : AVI

Format/Info : Audio Video Interleave

File size : 922 MiB

Duration : 52mn 3s

Overall bit rate : 2 476 Kbps

Writing application : SpanishDub 1.5

Writing library : VirtualDub build 14328/release

Video

ID : 0

Format : MPEG-4 Visual

Format profile : Advanced [email protected]

Format settings, BVOP : No

Format settings, QPel : No

Format settings, GMC : No warppoints

Format settings, Matrix : Custom

Codec ID : XVID

Codec ID/Hint : XviD

Duration : 52mn 3s

Bit rate : 2 338 Kbps

Width : 720 pixels

Height : 400 pixels

Display aspect ratio : 16:9

Frame rate : 25.000 fps

Color space : YUV

Chroma subsampling : 4:2:0

Bit depth : 8 bits

Scan type : Progressive

Compression mode : Lossy

Bits/(Pixel*Frame) : 0.325

Stream size : 871 MiB (94%)

Writing library : XviD 1.2.1 (UTC 2008-12-04)

Audio

ID : 1

Format : MPEG Audio

Format version : Version 1

Format profile : Layer 3

Mode : Joint stereo

Mode extension : MS Stereo

Codec ID : 55

Codec ID/Hint : MP3

Duration : 52mn 3s

Bit rate mode : Constant

Bit rate : 128 Kbps

Channel(s) : 2 channels

Sampling rate : 48.0 KHz

Compression mode : Lossy

Stream size : 47.7 MiB (5%)

Alignment : Aligned on interleaves

Interleave, duration : 40 ms (1.00 video frame)

Interleave, preload duration : 480 ms

Writing library : LAME3.98.2


EN ESPAÑOL | DE ESPAÑA




2012 – EL COMIENZO || DE UNA NUEVA ERA

http://ul.to/wpqo5k8l

http://ul.to/armklucf

http://ul.to/z7f90fal


‘’Yo soy de la época en la que un disco pirata era un disco no oficial de Led Zepelin, o de los Rolling Stones, eran estos vinilos blancos, con una fotocopia…
Para mi el disco pirata fue siempre algo difícil de conseguir, un articulo de colección, una especie de joya única’’ -Andrés Calamaro.

Ver Online HD

Comenta con tu Facebook :

Be the first to comment

Leave a Reply

Tu dirección de correo no será publicada.


*