15M: Excelente. Revulsivo. Importante [MP4][1080p][Castellano][2013]

[center][img]http://s5.postimg.org/n5tppmmgn/docu15mcc.png[/img]

[img]http://s5.postimage.org/4w7yk60fr/Sinopsis.png[/img]
[B]Después de un año y medio de trabajo y de su estreno en el Museo Reina Sofía, el documental 15M: Excelente. Revulsivo. Importante ya está disponible en Internet, donde puede ser visionado y descargado de forma libre y gratuita. Esta obra forma parte del proyecto transmedia 15M.cc junto con las Conversaciones 15M.cc, un libro todavía en proceso de desarrollo, y una serie de herramientas online (15Mpedia.org, WikiLibro, Banco de ideas), cuyo objetivo es difundir el movimiento 15-M.[/B]

Los impulsores del 15M.cc explican que se trata de “un proyecto cultural independiente y no representa en ningún caso al movimiento ni a ninguna de sus comisiones”. En la página web del proyecto también se han publicado las cuentas y se ha explicado el proceso de financiación para buscar el apoyo económico mediante donaciones.
Cualquier persona que lo desee puede ver y descargar 15M: Excelente. Revulsivo. Importante. Además, tal y como establece la licencia del proyecto, Creative Commons Atribución Compartir Igual (CC BY/SA), cualquiera puede hacer con la obra las modificaciones y remezclas que considere, siempre que utilice la misma licencia de salida de la obra. También cualquier televisión o medio de comunicación podría emitir esta obra con la única condición de respetar la licencia.

[IMG]http://s5.postimage.org/cmeqpb2rb/RIPEADO.png[/IMG]
[quote][center][b]
Format                                   : MPEG-4
Format profile                           : Base Media / Version 2
Codec ID                                 : mp42
File size                                : 1.79 GiB
Duration                                 : 1h 13mn
Overall bit rate mode                    : Variable
Overall bit rate                         : 3 483 Kbps
Encoded date                             : UTC 2013-01-29 20:48:01
Tagged date                              : UTC 2013-01-29 20:48:01

Video
ID                                       : 1
Format                                   : AVC
Format/Info                              : Advanced Video Codec
Format profile                           : [email protected]
Format settings, CABAC                   : Yes
Format settings, ReFrames                : 1 frame
Format settings, GOP                     : M=1, N=50
Codec ID                                 : avc1
Codec ID/Info                            : Advanced Video Coding
Duration                                 : 1h 13mn
Bit rate                                 : 3 288 Kbps
Maximum bit rate                         : 15.1 Mbps
Width                                    : 1 920 pixels
Height                                   : 1 080 pixels
Display aspect ratio                     : 16:9
Frame rate mode                          : Constant
Frame rate                               : 25.000 fps
Color space                              : YUV
Chroma subsampling                       : 4:2:0
Bit depth                                : 8 bits
Scan type                                : Progressive
Bits/(Pixel*Frame)                       : 0.063
Stream size                              : 1.69 GiB (94%)
Tagged date                              : UTC 2013-01-29 20:49:23

Audio
ID                                       : 2
Format                                   : AAC
Format/Info                              : Advanced Audio Codec
Format profile                           : LC
Codec ID                                 : 40
Duration                                 : 1h 13mn
Bit rate mode                            : Variable
Bit rate                                 : 192 Kbps
Maximum bit rate                         : 202 Kbps
Channel(s)                               : 2 channels
Channel positions                        : Front: L R
Sampling rate                            : 44.1 KHz
Compression mode                         : Lossy
Stream size                              : 101 MiB (6%)
Title                                    : IsoMedia File Produced by Google, 5-11-2011
Encoded date                             : UTC 2013-01-29 20:48:57
Tagged date                              : UTC 2013-01-29 20:49:23

[img]http://s5.postimage.org/su0a7shpv/MP4_Archivo.png[/img]
[IMG]http://s5.postimage.org/c8kcfux83/flag_spain.png[/IMG]
[B]EN ESPAÑOL | DE ESPAÑA[/B] [/b][/center][/quote]

[img]http://s5.postimage.org/w2zgbtxvb/CAPTURAS.png[/img]
[img]http://s5.postimg.org/ls22ubn7b/15_M3_XC3_L3_NT3_R3_VULSl_V0_IMP0_RT_s.jpg[/img]

[img]http://s5.postimage.org/yj19pofxz/DOWNLOAD.png[/img]
[url=http://ul.to/ref/7172673][img]http://uploaded.net/img/uploaded.png[/img][/url]
[B][SIZE=4]15M[COLOR=BLUE] || [/COLOR][COLOR=RED]EXCELENTE, REVULSIVO, IMPORTANTE[/COLOR][/SIZE][/B]
[CODE]http://ul.to/vuasnmnc
http://ul.to/24b3fkmj
http://ul.to/hpbz66jm[/CODE]

[IMG]http://s5.postimage.org/dz3dhcerb/CULTURA.png[/IMG]
[B]‘’Yo soy de la época en la que un disco pirata era un disco no oficial de Led Zepelin, o de los Rolling Stones, eran estos vinilos blancos, con una fotocopia…
Para mi el disco pirata fue siempre algo difícil de conseguir, un articulo de colección, una especie de joya única’’ -Andrés Calamaro.[/B][/CENTER]

Ver Online HD

Comenta con tu Facebook :

Be the first to comment

Leave a Reply

Tu dirección de correo no será publicada.


*