10 Días, 4 Horas y 39 Minutos (Across the America) – [MP4][720p][Castellano][2012]


10 Días – 4 Horas – 39 Minutos; es un documental de Mikel Cubillo y Julián Sanz.

Se narran los entresijos de la competición ciclista que se celebra cada año en Estados Unidos, llamada Race Across America, una competición de 4.900 kilómetros “Non-Stop” donde el límite de tiempo para completar la prueba es de doce días y compiten los mejores ciclistas de la especialidad.


Format : MPEG-4
Format profile : Base Media / Version 2
Codec ID : mp42
File size : 379 MiB
Duration : 23mn 11s
Overall bit rate mode : Variable
Overall bit rate : 2 287 Kbps

Video
ID : 1
Format : AVC
Format/Info : Advanced Video Codec
Format profile : [email protected]
Format settings, CABAC : Yes
Format settings, ReFrames : 1 frame
Codec ID : avc1
Codec ID/Info : Advanced Video Coding
Duration : 23mn 11s
Bit rate : 2 092 Kbps
Maximum bit rate : 8 473 Kbps
Width : 1 280 pixels
Height : 720 pixels
Display aspect ratio : 16:9
Frame rate mode : Constant
Frame rate : 25.000 fps
Color space : YUV
Chroma subsampling : 4:2:0
Bit depth : 8 bits
Scan type : Progressive
Bits/(Pixel*Frame) : 0.091
Stream size : 347 MiB (91%)
Tagged date : UTC 2013-01-11 12:44:44

Audio
ID : 2
Format : AAC
Format/Info : Advanced Audio Codec
Format profile : LC
Codec ID : 40
Duration : 23mn 11s
Bit rate mode : Variable
Bit rate : 192 Kbps
Maximum bit rate : 202 Kbps
Channel(s) : 2 channels
Channel positions : Front: L R
Sampling rate : 44.1 KHz
Compression mode : Lossy
Stream size : 31.8 MiB (8%)
Encoded date : UTC 2013-01-11 12:44:44
Tagged date : UTC 2013-01-11 12:44:44



EN ESPAÑOL | DE ESPAÑA




10 DIAS – 4 HORAS – 39 MINUTOS || NON-STOP

http://ul.to/ybnih07i


‘’Yo soy de la época en la que un disco pirata era un disco no oficial de Led Zepelin, o de los Rolling Stones, eran estos vinilos blancos, con una fotocopia…
Para mi el disco pirata fue siempre algo difícil de conseguir, un articulo de colección, una especie de joya única’’ -Andrés Calamaro.

Ver Online HD

Comenta con tu Facebook :

Be the first to comment

Leave a Reply

Tu dirección de correo no será publicada.


*